<?xml version="1.0" standalone="no"?>
<!DOCTYPE svg PUBLIC "-//W3C//DTD SVG 1.1//EN" "http://www.w3.org/Graphics/SVG/1.1/DTD/svg11.dtd" >
<svg xmlns="http://www.w3.org/2000/svg">
<metadata>
This is a custom SVG font generated by IcoMoon.
<iconset grid="16"></iconset>
</metadata>
<defs>
<font id="soc-icons" horiz-adv-x="512" >
<font-face units-per-em="512" ascent="480" descent="-32" />
<missing-glyph horiz-adv-x="512" />
<glyph class="hidden" unicode="&#xf000;" d="M0,480L 512 -32L0 -32 z" horiz-adv-x="0" />
<glyph unicode="&#xe001;" d="M 108.669,479.499l 23.032,0 l0-22.756 l 21.068,0 l0,22.756 l 23.034,0 l0-68.909 l-23.031,0 l0,23.076 l-21.069,0 l0-23.076 l-23.032,0 l0,68.909 l-0.002,0 zM 206.091,456.647l-20.274,0 l0,22.852 l 63.594,0 l0-22.852 l-20.285,0 l0-46.058 l-23.032,0 l0,46.058 l-0.002,0 zM 259.502,479.499
l 24.020,0 l 14.771-24.213l 14.759,24.213l 24.023,0 l0-68.909 l-22.939,0 l0,34.154 l-15.845-24.5l-0.395,0 l-15.856,24.5l0-34.154 l-22.539,0 l0,68.909 zM 348.54,479.499l 23.038,0 l0-46.133 l 32.391,0 l0-22.776 l-55.429,0 l0,68.909 zM 74.987,379.074l0,0.001 l 362.024,0 
l-32.98-369.476l-148.254-41.099l-147.845,41.040zM 368.289,291.38l 1.085,12.157l-113.374,0 l-0.158,0 l-113.488,0 l 1.086-12.157l 11.139-124.896l 101.264,0 l 0.158,0 l 55.65,0 l-5.258-58.781l-50.551-13.641l0-0.004 l-0.042-0.013
l-50.474,13.632l-3.228,36.147l-24.526,0 l-20.971,0 l 6.352-71.161l 92.839-25.774l 0.208,0.060l0,0.008 l 92.756,25.709l 0.683,7.652l 10.649,119.319l 1.106,12.172l-12.214,0 l-92.981,0 l-0.158,0 l-59.813,0 l-4.143,46.407l 63.956,0 l 0.158,0 
l 109.171,0 l 0.149,0 l 0.905,10.188z"  />
<glyph unicode="&#xe002;" d="M 30.713,479.499l 450.574,0 l-41.049-459.847l-184.516-51.15l-184.006,51.078zM 395.754,370.354l 1.35,15.132l-141.104,0 l-0.196,0 l-141.247,0 l 1.352-15.132l 13.863-155.443l 126.031,0 l 0.197,0 l 69.261,0 l-6.542-73.158l-62.916-16.977l0-0.007 
l-0.052-0.014l-62.82,16.965l-4.016,44.986l-30.526,0 l-26.098,0 l 7.903-88.566l 115.547-32.078l 0.259,0.072l0,0.013 l 115.443,31.994l 0.849,9.523l 13.255,148.506l 1.377,15.146l-15.201,0 l-115.723,0 l-0.197,0 l-74.443,0 
l-5.155,57.761l 79.599,0 l 0.197,0 l 135.872,0 l 0.187,0 l 1.128,12.681z"  />
<glyph unicode="&#xe003;" d="M 204.064,433.318l0-22.019 l-56.303,0 l0,68.199 l 56.303,0 l0-24.13 l-32.173,0 l0-22.051 l 32.173,0 zM 261.941,455.369l 22.491-22.051l0-22.019 l-56.308,0 l0,22.015 c0-0.001 15.987,0.021 22.356,0.021c-10.896,10.896 -14.823,14.501 -22.356,22.034
l0,24.13 l 56.308,0 l0-24.13 l-22.491,0 zM 341.746,455.369l 22.491-22.051l0-22.019 l-56.308,0 l0,22.015 c0-0.001 15.99,0.021 22.355,0.021c-10.895,10.896 -14.824,14.501 -22.355,22.034l0,24.13 l 56.307,0 l0-24.13 l-22.49,0 zM 438.395,378.888
l-34.202-370.485l-148.193-39.9l-148.196,39.9l-34.197,370.485l 364.789,0 zM 369.477,303.556l-113.611,0 l-115.62,0 l 5.529-44.738l 110.091,0 l 6.184,0 l-6.184-2.574l-106.067-44.177l 3.519-43.73l 102.549-0.333l 54.963-0.175l-3.521-58.312
l-51.441-14.483l0,0.046 l-0.422-0.116l-49.685,12.542l-3.015,36.195l-0.164,0 l-46.085,0 l-0.162,0 l 6.032-69.876l 93.5-27.649l0,0.050 l 0.168-0.050l 93,27.146l 12.066,138.744l-105.234,0 l-0.26,0 l 0.26,0.111l 109.086,46.64z"  />
<glyph unicode="&#xe004;" d="M 483.111,479.499l-42.59-461.314l-184.524-49.684l-184.527,49.684l-42.581,461.314l 454.223,0 zM 397.29,385.698l-141.459,0 l-143.965,0 l 6.885-55.708l 137.080,0 l 7.7,0 l-7.7-3.205l-132.070-55.006l 4.38-54.453l 127.69-0.414l 68.438-0.217
l-4.381-72.606l-64.058-18.035l0,0.058 l-0.525-0.146l-61.863,15.617l-3.755,45.070l-0.204,0 l-57.383,0 l-0.201,0 l 7.511-87.008l 116.423-34.429l0,0.063 l 0.21-0.063l 115.799,33.802l 15.021,172.762l-131.030,0 l-0.323,0 
l 0.323,0.14l 135.83,58.071z"  />
<glyph unicode="&#xe017;" d="M 509.365,86.716c-5.913-6.65 -21.665-8.124 -21.665-8.124l-83.951,0 s-11.737-2.74 -32.498,18.957c-14.263,14.907 -28.922,36.898 -40.621,46.038c-6.977,5.45 -13.541,2.708 -13.541,2.708s-12.25-0.587 -13.541-13.541
c-2.269-22.752 -5.416-35.205 -5.416-35.205s-1.494-9.619 -5.416-13.541c-4.19-4.19 -10.832-5.416 -10.832-5.416s-115.865-26.118 -205.817,119.157c-64.915,104.844 -73.119,135.405 -73.119,135.405s-5.506,7.406 0,16.249
c 5.813,9.334 13.541,8.124 13.541,8.124l 75.827,0 s 8.384-0.903 13.541-5.416c 5.651-4.945 8.125-13.541 8.125-13.541s 16.621-40.193 35.205-70.411c 25.681-41.754 37.914-37.914 37.914-37.914s 22.176,6.17 8.124,100.201
c-1.943,13.008 -27.081,16.249 -27.081,16.249s-0.232,11.227 5.416,16.249c 6.479,5.761 13.541,5.416 13.541,5.416s 11.245,1.964 51.454,2.708c 20.326,0.375 35.205,0 35.205,0s 9.895,0.329 21.665-8.125
c 5.696-4.091 5.416-13.541 5.416-13.541s-2.388-67.862 0-102.909c 1.029-15.074 8.125-16.249 8.125-16.249s 7.622-5.902 37.913,37.914c 19.169,27.727 35.206,67.703 35.206,67.703s 3.97,11.4 8.124,16.249
c 3.965,4.625 10.833,5.416 10.833,5.416l 97.492,0 s 6.011,0.221 8.124-5.416c 1.94-5.177 0-16.249 0-16.249s-1.065-12.265 -10.832-27.082c-23.063-34.989 -67.703-92.075 -67.703-92.075s-3.351-7.752 -2.708-13.541
c 0.708-6.371 5.416-10.832 5.416-10.832s 33.647-30.445 56.87-56.871c 12.547-14.278 21.665-32.497 21.665-32.497s 4.802-10.844 -0.001-16.247z"  />
<glyph unicode="&#xe018;" d="M 307.041,188.257c 3.585-4.979 5.351-11.843 5.351-20.672c0-6.864 -1.5-13.024 -4.514-18.441c-3.015-5.442 -7.714-9.559 -14.271-12.372c-7.383-3.2 -14.712-4.913 -21.827-5.165
c-7.144-0.267 -20.021-0.398 -38.661-0.398l-3.877,0 l0,71.441 l 13.224,0 c 12.746,0 22.969-0.066 30.55-0.253c 7.581-0.213 13.608-1.115 17.924-2.827c 7.128-2.551 12.491-6.281 16.102-11.313zM 264.052,251.891
c-4.912-0.266 -13.542-0.385 -25.784-0.386l-9.027,0 l0,60.381 l 4.979,0 c 12.759,0 22.371-0.066 28.851-0.265c 6.478-0.199 12.027-1.301 16.74-3.399c 5.047-2.164 8.697-5.694 11.060-10.527
c 2.363-4.847 3.532-9.56 3.532-14.206c0-6.213 -1.115-11.71 -3.279-16.489c-2.151-4.699 -6.147-8.43 -11.83-11.112c-5.229-2.416 -10.342-3.729 -15.241-3.996zM 511.5,379.372l0-310.737 
c0-55.070 -45.060-100.131 -100.132-100.131l-310.724,0 c-55.071,0 -100.145,45.060 -100.145,100.131l0,310.737 c0,55.070 45.073,100.124 100.145,100.124l 310.725,0 c 55.070,0 100.131-45.054 100.131-100.124zM 386.183,166.272
c0,19.369 -5.298,34.798 -15.904,46.256c-10.582,11.431 -24.722,18.958 -42.313,22.689l0,1.515 c 12.229,5.149 21.855,13.143 28.783,24.003c 6.997,10.859 10.462,23.221 10.462,37.148c0,12.041 -2.549,22.649 -7.594,31.863
c-5.032,9.161 -12.692,16.542 -22.89,22.039c-9.427,5.11 -19.557,8.442 -30.351,10.011c-10.807,1.646 -26.686,2.416 -47.636,2.416l-100.795,0 l0-285.339 l 114.205,0 c 19.835,0 36.111,1.779 48.938,5.364
c 12.893,3.598 24.668,9.559 35.395,17.988c 9.095,7.063 16.276,15.905 21.653,26.634c 5.364,10.727 8.046,23.233 8.046,37.414z"  />
<glyph unicode="&#xe021;" d="M 471.393,408.798c 66.564-78.285 22.842-233.715 -97.659-347.162c-7.533-7.097 -24.736-21.665 -24.811-21.368c-97.909-82.089 -214.415-95.686 -269.588-30.802c-27.763,32.656 -34.583,79.804 -23.306,130.534
c 8.856,39.844 28.891,81.89 58.72,120.866l-23.325,31.217c-40.631-48.154 -67.647-101.092 -78.702-150.479c-1.080-0.065 -2.155-0.132 -3.236-0.205c 10.968,50.683 37.871,105.213 78.395,155.426l-57.327,76.725
c-15.152,20.282 0.489,57.592 34.941,83.333c 34.452,25.743 74.665,30.168 89.821,9.887l 49.327-65.891c 103.587,64.698 212.952,71.189 266.749,7.92zM 278.019,265.112l-100.050,134.168c-15.245-2.002 -33.093-9.483 -49.767-21.942
c-0.285-0.212 -0.546-0.436 -0.826-0.649l 85.031-113.806c 8.523-9.354 49.871-11.422 65.611,2.229zM 218.473,248.995c 5.194-26.817 -11.175-53.356 -16.908-62.302l 76.726-34.767
c 1.874,3.546 4.658,6.88 8.289,9.593c 3.632,2.714 7.625,4.439 11.563,5.231l-13.136,88.998l-1.426,1.912c-11.086-8.278 -39.596-18.739 -65.107-8.666zM 238.314,355.902l 67.917-90.722l 19.392-152.232l 10.097,8.133
c 1.456,1.334 6.945,5.665 6.957,5.675c 84.955,69.819 117.448,169.107 72.564,221.904c-34.991,41.157 -106.686,41.889 -176.927,7.242zM 77.517,440.793c-16.961-12.674 -35.549-38.928 -27.784-55.257
c 5.666,15.034 18.541,31.516 36.612,45.018c 17.046,12.737 35.328,20.287 50.799,22.086c-13.57,9.322 -43.714,0.042 -59.627-11.847zM 79.26,345.437c 5.555,15.184 18.532,31.907 36.825,45.574
c 17.308,12.934 35.895,20.53 51.513,22.176l-19.145,25.671c-15.296-1.954 -33.238-9.454 -49.994-21.976c-18.946-14.158 -32.137-31.579 -37.33-47.182zM 90.811,329.977l 102.804-137.585c 24.945,32.272 12.001,65.419 12.001,65.419
l-84.827,113.527c-15.036-12.968 -25.53-27.845 -29.977-41.361zM 445.004,167.526c 0.096,0.041 0.202,0.086 0.305,0.131c 45.602,83.443 51.567,169.562 7.507,221.319c-49.299,57.888 -146.778,55.855 -241.465,2.944
l 21.73-29.026c 57.023,31.975 116.023,41.642 158.406,26.233c 0.983-0.296 1.987-0.566 2.957-0.886c-0.064-0.063 -0.122-0.125 -0.186-0.185c 13.704-5.436 25.594-13.542 34.935-24.515
c 47.046-55.254 12.573-161.014 -76.998-236.213c-1.501-1.263 -3.019-2.474 -4.538-3.692l 0.025-0.021l-20.837-16.328l-1.33,2.1l-38.638,16.633c-1.128,0.358 -2.198,0.82 -3.21,1.383l-102.006,43.911
l-61.651,82.511c-27.788-37.873 -45.559-78.387 -51.827-116.19c-7.004-42.258 0.336-81.126 24.106-109.099c 51.344-60.427 165.71-54.331 254.758,23.188c 35.965,31.311 71.331,66.155 97.956,115.802z"  />
<glyph unicode="&#xe028;" d="M 412.522,274.733l 98.978-84.832l-103.652-62.19l0,0 l-49.522-29.716l-101.312,77.759l-101.344-77.759l-48.851,28.931l0,0 l-106.32,62.976l 106.858,81.302l-106.858,81.29l 155.17,101.074l 101.344-86.94l 103.677,86.94l 150.81-96.356z
M 257.329,362.122l-148.121-89.495l 146.787-92.477l 147.705,97.879zM 362.708,83.698l 45.14,27.082l0-24.627 l-152.199-98.722l-148.828,99.394l0,23.214 l 44.513-26.375l 4.955-2.926l 4.573,3.497l 96.152,73.779l 96.12-73.779l 4.607-3.521z"  />
<glyph unicode="&#xe056;" d="M 510.598,479.5l0,0 l0-121.873 l0-121.72 c-54.385-0.325 -105.71-0.624 -153.981-0.907c-45.673-0.275 -80.069-0.529 -121.056-0.77l0,102.803 l0,102.934 c 40.986,5.706 75.383,11.744 121.006,18.094
c 48.272,6.727 99.645,13.873 154.031,21.439zM 211.932,436.671l0,0 l0-101.354 l0-101.224 c-37.834-0.225 -82.73-0.44 -116.938-0.641c-32.645-0.196 -63.859-0.383 -93.592-0.557l0,87.794 l0,87.893 
c 29.783,4.156 60.947,8.504 93.592,13.048c 34.209,4.77 79.154,9.775 116.938,15.040zM 1.402,215.612l0,0 c 29.733-0.216 60.898-0.441 93.591-0.673c 34.209-0.245 79.103-0.508 116.938-0.782l0-101.269 l0-101.186 
c-37.834,5.314 -82.774,10.367 -116.99,15.174c-32.642,4.583 -63.806,8.965 -93.538,13.149l0,87.754 l0,87.832 zM 235.561,8.38l0,102.754 l0,102.856 c 40.987-0.298 75.383-0.611 121.056-0.939
c 48.272-0.345 99.596-0.723 153.981-1.114l0-121.771 l0-121.666 c-54.385,7.631 -105.71,14.842 -153.981,21.624c-45.673,6.417 -80.069,12.497 -121.056,18.256z"  />
<glyph unicode="&#xe064;" d="M 252.517,193.285l 47.269,0 l0-11.22 l-48.077,0 c-0.487,0 -1.133-0.107 -1.62-0.107c-5.988-0.541 -7.769-1.514 -8.577-4.966c-0.164-0.54 -0.164-0.974 -0.164-1.405l0-7.66 
c0-0.541 0-0.974 0.164-1.514c 0.81-4.533 4.046-6.579 10.843-6.579l 20.396,0 c 5.019,0 10.196-0.865 14.409-2.486c 7.93-3.020 11.979-7.552 11.979-12.408l0-12.302 c0-5.938 -3.563-10.472 -10.846-13.813
c-4.375-2.051 -9.876-3.235 -15.544-3.235l-48.399,0 l0,11.22 l 46.461,0 c 0.648,0 1.132,0.107 1.78,0.107c 3.235,0.217 5.664,1.081 7.119,2.379c 1.622,1.289 2.429,2.803 2.429,3.992l0,9.818 
c0,1.076 -0.323,2.050 -1.293,3.022c-1.618,1.941 -3.889,2.911 -9.229,3.343c-0.486,0.108 -1.131,0.108 -1.779,0.108l-17.485,0 c-1.617,0 -3.234,0.107 -4.856,0.217c-14.405,1.509 -22.984,7.984 -22.984,15.54
l0,9.818 c0,8.633 4.371,13.599 14.407,16.729c 3.237,0.97 6.799,1.402 13.598,1.402zM 383.567,118.993l 16.584-14.967l-19.551,0 l-13.415,12.109l-13.507-0.856l-18.007,0 c-3.081,0 -6.325,0.433 -9.893,1.405
c-10.704,2.919 -15.898,8.541 -15.898,17.845l0,40.010 c0,10.167 7.142,16.334 21.25,18.28c 1.46,0.217 3.082,0.323 4.541,0.323l 31.959,0 c 1.621,0 3.081-0.106 4.703-0.323c 14.109-1.946 21.246-8.113 21.246-18.28
l0-40.010 c 0.001-8.246 -3.026-12.662 -10.013-15.536zM 377.849,173.565c0,0.433 0,0.974 -0.162,1.519c-0.973,4.324 -5.352,6.813 -11.839,6.813l-25.467,0 c-7.465,0 -12.326-3.244 -12.326-8.33l0-38.063 
c0-0.541 0.162-1.081 0.32-1.729c 0.973-4.653 5.356-7.248 12.006-7.248l 15.291,0 l-14.048,12.684l 19.55,0 l 12.255-11.062c 2.254,1.205 3.742,3.044 4.258,5.409c 0.162,0.536 0.162,1.081 0.162,1.622
l0,38.387 zM 109.281,193.178c 5.342-1.618 7.932-4.749 7.933-11.22l0-66.37 l-16.836,0 l0,66.478 l-26.061-57.953c-3.077-7.017 -7.123-9.498 -15.381-9.498c-8.254,0 -12.463,2.481 -15.537,9.498l-26.064,57.953l0-66.478 l-16.833,0 
l0,66.37 c0,6.471 2.591,9.602 7.933,11.22c 12.787,3.992 21.528,0.54 25.252-8.093l 24.767-57.196l 25.577,57.196c 3.883,8.633 12.464,12.085 25.252,8.093zM 194.508,169.873l0,0.002 l 16.87,0 
c 0.079,0 -0.017-59.467 -0.015-59.721c 0.094-14.667 -18.198-17.854 -26.629-18.104l-53.157,0 l0,11.328 c 0.092,0 53.117-0.008 53.25,0c 10.835,1.148 9.556,6.534 9.554,8.347l0,4.412 l-35.782,0 
c-16.646,0.157 -27.249,7.419 -27.38,15.777c-0.012,0.773 0.36,37.418 -0.008,37.784l 16.83,0 l0-36.628 c-0.158-1.989 0.638-6.662 9.86-6.805c 4.705-0.074 36.312,0 36.606,0l0,43.606 zM 501.146,126.267
l 4.065-6.222l-2.777,0 l-3.704,6.122l-2.218,0 l0-6.122 l-2.379,0 l0,14.164 l 5.522,0 c 3.506,0 5.327-1.193 5.327-4.071c0-2.582 -1.655-3.639 -3.837-3.871zM 499.058,128.154c 1.788,0 3.345,0.167 3.345,2.146
c0,1.654 -1.723,1.921 -3.146,1.921l-2.744,0 l0-4.066 l 2.545,0 zM 511.5,127.127c0-7.41 -5.855-12.404 -12.409-12.404c-6.546,0 -12.404,4.994 -12.404,12.404c0,7.411 5.858,12.405 12.404,12.405
c 6.554,0 12.409-4.994 12.409-12.405zM 508.722,127.127c0,5.627 -4.3,9.827 -9.631,9.827c-5.39,0 -9.627-4.2 -9.627-9.827c0-5.622 4.237-9.826 9.627-9.826c 5.331,0 9.631,4.204 9.631,9.826zM 362.063,324.017
c 1.061-1.027 2.69-1.719 3.528-2.941c 0.632-0.917 0.741-1.879 1.474-2.649c 0.008-3.136 -0.824-5.189 -2.649-6.473c-0.096-0.098 -0.195-0.195 -0.295-0.293
c-0.981,2.058 -1.962,4.116 -2.94,6.177c-1.271,1.822 -3.090,3.185 -4.121,5.299l-0.295,0 l0,0.293 c 1.613,0.354 3.141,0.628 5.299,0.588zM 504.48,173.062c-2.803,2.060 -5.655,4.354 -8.539,6.181
c-4.874,3.093 -10.53,4.855 -15.596,7.946c-2.844,1.734 -5.581,3.88 -8.237,5.885c-2.434,1.838 -5.157,5.335 -6.767,7.946c-0.84,1.359 -1.007,3.016 -2.063,4.121c 0.315,2.403 3.377,2.428 5.298,3.234
c 6.758,2.848 14.663,3.809 25.010,3.535c-0.315,2.654 -6.737,5.88 -8.825,7.353c-4.178,2.944 -8.49,6.143 -12.948,8.831c-2.329,1.402 -6.362,2.488 -8.824,3.527c-3.516,1.486 -11.245,2.92 -13.245,5.592
c-3.805,5.086 -6.429,11.253 -9.12,17.361c-2.698,6.126 -6.117,12.568 -8.828,18.832c-1.342,3.106 -2.004,5.9 -3.53,8.829c-9.485,18.185 -23.354,33.431 -40.313,44.138c-5.567,3.516 -11.697,6.75 -18.538,8.829
c-3.867,1.175 -8.508,0.521 -12.654,1.472l-2.648,0 c-2.317,0.682 -4.259,3.144 -6.176,4.415c-3.996,2.647 -7.938,4.514 -12.654,6.473c-1.779,0.739 -6.528,2.493 -8.237,1.178
c-1.003-0.331 -1.453-0.753 -1.768-1.767c-0.998-1.501 -0.083-3.836 0.59-5.295c 1.889-4.109 4.622-6.609 7.062-10.006c 2.204-3.066 4.888-6.559 6.476-10.006
c 3.318-7.215 4.791-15.226 7.938-22.362c 1.214-2.743 2.96-5.865 4.716-8.239c 1.413-1.922 3.938-3.372 4.703-5.887c 1.61-2.518 -2.357-11.104 -3.234-13.83
c-3.39-10.537 -2.675-25.275 1.177-34.428c 1.521-3.62 2.961-7.84 7.061-8.826c 0.305,0.234 0.075,0.107 0.592,0.293c 0.872,7.049 1.176,13.847 3.529,19.42c 1.474,3.486 4.276,5.876 6.181,8.828
c 1.397-0.805 1.39-3.153 2.059-4.709c 1.739-4.028 3.531-8.397 5.594-12.358c 4.316-8.292 9.054-16.261 14.417-23.539c 1.906-2.587 4.467-5.394 6.771-7.652
c 0.972-0.957 2.17-1.456 2.939-2.645l 0.295,0 l0-0.3 c-3.955,1.352 -6.361,5.344 -9.415,7.651c-5.896,4.449 -12.852,11.051 -16.774,17.364c-1.764,3.529 -3.53,7.061 -5.298,10.592l0,0.293 
c-0.736-0.981 -0.508-2.060 -0.882-3.531c-1.663-6.475 -0.367-13.815 -6.181-16.183c-6.645-2.713 -11.48,4.355 -13.531,7.648c-6.69,10.734 -8.426,28.757 -3.825,43.259
c 1.019,3.221 1.123,7.167 2.936,9.71c-0.291,2.283 -2.145,2.935 -3.229,4.414c-1.769,2.408 -3.312,5.25 -4.713,7.943c-2.766,5.328 -4.623,11.599 -6.762,17.362c-0.875,2.339 -1.048,4.558 -2.063,6.769
c-1.548,3.363 -4.313,6.719 -6.477,9.709c-3.081,4.267 -11.688,12.479 -8.236,20.894c 5.464,13.335 24.396,3.191 31.778-1.47c 1.855-1.174 3.909-3.59 5.884-4.414c 3.235-0.195 6.477-0.395 9.712-0.59
c 6.028-1.43 11.734-2.523 16.479-5.295c 22.277-13.032 36.662-26.293 50.023-48.26c 2.782-4.579 4.241-9.611 6.471-14.713c 3.272-7.484 6.904-15.252 10.596-22.365c 1.765-3.395 3.011-7.090 5.294-10.006
c 0.97-1.23 3.539-1.616 5.003-2.354c 4.354-2.198 9.433-3.882 13.536-6.476c 7.407-4.672 14.597-10.279 21.189-15.888c 2.516-2.146 4.162-5.281 6.471-7.651l0-1.181 
c-2.059-0.583 -4.117-1.173 -6.18-1.764c-4.566-1.182 -8.521-0.873 -12.945-2.060c-2.633-0.707 -5.976-1.739 -8.829-2.059c 0.101-0.101 0.2-0.199 0.296-0.299
c 1.681-4.684 10.692-8.583 14.713-11.475c 5.048-3.622 9.793-7.979 13.535-12.944c 1.272-1.277 2.554-2.555 3.826-3.826c 0.87-1.261 1.111-2.919 2.059-4.121l0-0.295 
c-1.801,0.64 -2.731,2.22 -4.12,3.238zM 420.994,135.224c0-5.93 3.726-8.416 13.597-8.415l 44.193,0 l0-11.22 l-43.868,0 c-1.622,0 -3.24,0.108 -4.857,0.212c-17.319,1.296 -25.898,7.772 -25.898,19.316l0,58.169 l 16.834,0 
l0-58.063 z"  />
<glyph unicode="&#xe065;" d="M 400.264,311.005c-1.101-7.165 -2.242-14.575 -2.527-23.569c-0.287-8.751 0.81-17.85 1.866-26.648c 2.135-17.773 4.324-36.068 -4.162-54.124c-1.315,2.343 -2.59,4.896 -3.756,7.728
c-1.053,2.559 -3.344,6.664 -6.514,12.348c-12.335,22.121 -41.223,73.923 -26.432,95.061c 7.603,10.868 26.858,11.337 43.639,9.272c-0.121-7.026 -1.086-13.405 -2.114-20.066zM 386.131,315.117
c 2.089,2.19 3.291,4.631 3.070,6.218c-0.343,2.454 -3.751,3.98 -8.896,3.98c-1.241,0 -2.537-0.093 -3.84-0.273c-5.953-0.829 -11.721-3.518 -11.245-7.053c 0.415-2.931 5.413-7.45 11.205-7.45
c 0.513,0 1.028,0.036 1.533,0.105c 3.929,0.546 6.809,3.036 8.172,4.473zM 327.039,446.289c 10.601,2.196 25.097,4.245 41.328,3.889c 41.125-0.91 73.65-16.294 96.683-45.725
c 17.667-22.573 -1.782-125.291 -58.099-213.903c-0.553,0.706 -1.121,1.42 -1.706,2.15c-0.233,0.294 -0.472,0.593 -0.714,0.895c 14.553,24.032 11.705,47.807 9.173,68.888
c-1.041,8.651 -2.021,16.823 -1.771,24.498c 0.26,8.14 1.335,15.114 2.376,21.862c 1.278,8.313 2.581,16.915 2.22,27.056c 0.27,1.063 0.379,2.318 0.236,3.812c-0.915,9.729 -12.020,38.829 -34.65,65.174
c-12.376,14.407 -30.43,30.529 -55.075,41.405zM 171.328,187.778c 1.615-1.687 3.301-3.268 5.044-4.76c-6.948-7.438 -22.048-23.891 -38.119-43.224c-11.372-13.674 -19.226-11.060 -21.809-10.196
c-16.828,5.614 -36.355,41.183 -53.569,97.587c-14.896,48.803 -23.602,97.875 -24.29,111.639c-2.176,43.52 8.373,73.852 31.356,90.15c 37.399,26.526 98.897,10.648 123.606,2.596c-0.356-0.35 -0.725-0.678 -1.075-1.032
c-40.549-40.952 -39.587-110.918 -39.485-115.193c-0.006-1.648 0.133-3.983 0.322-7.198c 0.697-11.767 1.996-33.669 -1.473-58.474c-3.222-23.049 3.881-45.606 19.491-61.895zM 397.933,178.921
c-8.034-2.319 -22.459-7.667 -21.144-34.405c-1.057-13.406 -8.6-76.218 -12.428-98.418c-5.055-29.323 -15.849-40.246 -46.181-46.749c-31.457-6.742 -42.586,9.311 -49.927,27.654
c-4.735,11.847 -7.059,65.254 -5.413,124.232c 0.024,0.781 -0.089,1.541 -0.307,2.251c-0.187,1.375 -0.477,2.767 -0.879,4.17c-2.452,8.584 -8.438,15.759 -15.617,18.735
c-2.247,0.933 -5.645,2.335 -9.822,2.335c-1.543,0 -3.062-0.192 -4.558-0.58c 1.343,5.525 3.669,11.762 6.188,18.519l 1.060,2.843c 1.189,3.207 2.687,6.526 4.268,10.044
c 8.545,18.981 20.248,44.984 7.547,103.725c-4.758,22.001 -20.646,32.743 -44.727,30.25c-14.44-1.495 -27.648-7.321 -34.236-10.661c-1.422-0.721 -2.727-1.417 -3.94-2.096c 1.816,22.137 8.734,63.497 34.751,89.773
c 16.365,16.531 38.163,24.695 64.748,24.256c 52.313-0.858 85.86-27.706 104.795-50.078c 16.314-19.279 25.148-38.698 28.674-49.173c-26.504,2.696 -44.546-2.539 -53.687-15.606c-19.89-28.43 10.878-83.603 25.665-110.121
c 2.71-4.862 5.055-9.059 5.788-10.846c 4.813-11.669 11.048-19.461 15.605-25.148c 1.393-1.744 2.744-3.438 3.776-4.906zM 248.003,153.748c 0.581-2.037 1.238-5.901 -0.907-8.902
c-10.808-15.134 -25.686-22.81 -44.22-22.81c-6.095,0 -12.566,0.848 -19.24,2.518c-3.903,0.977 -7.415,2.67 -9.477,4.073c 1.721,0.813 4.784,1.912 10.096,3.005c 25.71,5.297 29.679,9.031 38.349,20.039
c 1.989,2.524 4.244,5.385 7.367,8.874c 2.358,2.638 4.46,3.978 6.246,3.978c 1.253,0 2.666-0.54 4.383-1.25c 3.124-1.3 6.169-5.213 7.403-9.524zM 469.358,162.569
c 0.107,0.023 0.218,0.049 0.321,0.067c-3.937-3.683 -10.669-8.619 -20.224-13.057c-8.213-3.813 -21.951-6.671 -35.007-7.284c-14.42-0.67 -21.761,1.613 -23.487,3.025
c-0.807,16.657 5.396,18.399 11.959,20.244c 1.028,0.29 2.037,0.571 3.005,0.91c 0.605-0.487 1.268-0.979 1.993-1.456c 11.589-7.649 32.261-8.473 61.44-2.45zM 224.536,201.63
c-2.662-7.147 -5.14-13.786 -6.678-20.094c-13.373,0.040 -26.381,5.752 -36.275,16.077c-12.578,13.121 -18.292,31.381 -15.676,50.093c 3.664,26.204 2.311,49.023 1.583,61.281
c-0.101,1.714 -0.189,3.218 -0.244,4.403c 5.923,5.252 33.375,19.96 52.95,15.476c 8.934-2.047 14.377-8.127 16.642-18.591c 11.712-54.173 1.549-76.751 -6.614-94.892c-1.685-3.743 -3.275-7.272 -4.633-10.931
zM 206.106,311.058c 2.594-3.438 6.386-5.803 10.138-6.32c 0.558-0.079 1.131-0.119 1.698-0.119c 6.488,0 11.892,5.060 12.365,8.472c 0.631,4.504 -5.908,7.505 -12.244,8.386
c-1.36,0.19 -2.707,0.287 -4.009,0.287c-5.87,0 -9.63-1.874 -10.058-4.998c-0.302-2.132 1.192-4.49 2.109-5.707zM 503.183,171.773c 5.816-26.339 -29.961-45.199 -41.060-50.355
c-13.36-6.203 -34.051-10.208 -52.723-10.208c-1.831,0 -3.65,0.036 -5.408,0.116l-2.775,0.227l-0.577-4.921c-1.31-50.008 -8.543-81.775 -23.454-103.008c-15.904-22.644 -37.77-28.945 -57.019-33.067
c-6.368-1.367 -12.495-2.057 -18.215-2.057c-17.909,0 -32.962,6.751 -43.525,19.523c-8.013,9.688 -11.496,20.36 -13.801,27.428c-0.404,1.233 -0.775,2.375 -1.053,3.122c-5.274,14.237 -7.049,34.43 -8.089,60.381
c-0.154,3.816 -0.268,7.898 -0.385,12.060c-0.050,1.831 -0.108,3.86 -0.173,6.002c-9.853-3.943 -20.624-5.94 -32.060-5.94c-8.559,0 -17.489,1.148 -26.547,3.416
c-6.386,1.598 -17.995,5.534 -25.994,14.251c-9.122-7.204 -19.020-10.854 -29.448-10.854c-33.309,0 -60.191,35.753 -84.595,112.527c-15.796,49.687 -26.829,106.907 -27.785,126.056c-2.285,45.665 7.888,80.731 30.233,104.223
c 20.182,21.219 48.914,31.976 85.395,31.976c 32.433,0 63.572-8.746 79.702-14.146c 17.711,10.329 38.375,15.566 61.434,15.566c 0.845,0 1.691-0.006 2.546-0.020c 12.815-0.208 25.084-1.322 36.482-3.311
c 7.228,2.21 31.098,8.74 60.326,8.74c 51.858,0 94.783-19.825 124.135-57.333c 19.966-25.515 12.682-75.309 3.054-112.586c-10.402-40.273 -28.34-83.305 -50.633-121.528c 6.365,0.396 13.771,1.461 22.071,3.171
c 4.321,0.896 8.128,1.327 11.641,1.327c 17.506,0 26.186-11.192 28.299-20.776zM 455.442,136.698c 12.899,5.986 36.173,20.692 31.949,33.461c-2.185,6.606 -9.221,8.737 -20.908,6.325
c-34.7-7.164 -47.137-2.203 -51.219,0.798c 26.977,41.102 49.169,90.776 61.141,137.128c 5.761,22.283 17.264,76.519 -0.169,98.799c-25.834,33.011 -63.75,50.716 -109.647,51.204c-31.534,0.347 -58.207-7.722 -63.378-9.991
c-10.883,2.706 -22.745,4.368 -35.665,4.58c-23.712,0.373 -44.164-5.292 -61.105-16.842c-17.183,6.438 -95.945,32.957 -144.689-1.577c-27.224-19.289 -39.793-53.763 -37.355-102.47
c 0.818-16.391 10.154-66.799 24.891-115.076c 19.394-63.542 40.477-99.514 62.66-106.91c 2.598-0.869 5.593-1.477 8.893-1.473c 8.093,0 18.014,3.646 28.337,16.058c 17.145,20.627 33.156,37.911 39.056,44.191
c 8.721-4.681 18.3-7.293 28.1-7.557c 0.015-0.258 0.044-0.512 0.066-0.77c-1.968-2.332 -3.58-4.373 -4.953-6.119c-6.79-8.62 -8.202-10.41 -30.057-14.912
c-6.216-1.282 -22.73-4.687 -22.969-16.259c-0.264-12.646 19.516-17.954 21.771-18.52c 7.797-1.951 15.429-2.939 22.685-2.939c 17.598,0 32.996,5.813 45.278,16.929c-0.381-45.078 1.5-89.495 6.913-103.031
c 4.431-11.075 15.257-38.156 49.469-38.152c 5.018,0.004 10.544,0.585 16.622,1.884c 35.701,7.656 51.202,23.435 57.204,58.22c 3.206,18.604 8.712,62.995 11.302,86.801c 5.47-1.701 12.508-2.483 20.119-2.483
c 15.868,0 34.172,3.372 45.659,8.704z"  />
<glyph unicode="&#xe051;" d="M 248.639,356.52c-5.446,29.713 8.602,60.286 25.519,80.894c 18.645,22.732 50.642,40.171 77.983,42.086c 4.624-31.149 -8.088-61.499 -24.821-82.965c-17.949-23.061 -48.813-40.947 -78.681-40.016zM 409.029,248.872
c-19.574-54.443 5.398-121.354 66.13-144.26c-11.943-26.607 -17.756-38.492 -33.11-62.022c-21.575-32.794 -51.902-73.672 -89.475-73.988c-33.418-0.324 -42.015,21.774 -87.375,21.524
c-45.286-0.232 -54.784-21.948 -88.244-21.624c-37.56,0.325 -66.308,37.261 -87.878,70.064c-44.363,67.585 -59.23,143.698 -49.279,202.143c 3.585,20.834 10.168,39.539 19.882,54.585c 26.411,40.733 68.064,64.578 107.188,64.578
c 39.895,0 64.906-21.944 97.866-21.944c 31.995,0 51.466,21.944 97.529,21.944c 34.823,0 71.71-19.034 97.992-51.828c-26.004-14.331 -42.763-35.568 -51.226-59.172z"  />
<glyph unicode="&#xe07d;" d="M 256.649,130.009c-50.653,0 -91.862,41.213 -91.862,91.862c0,50.658 41.209,91.867 91.862,91.867c 50.652,0 91.865-41.209 91.865-91.867c 0.001-50.649 -41.212-91.862 -91.865-91.862zM 295.351,113.685l-83.541-141.27
c-34.935,6.245 -67.575,19.418 -97.040,39.168c-56.559,37.919 -94.966,95.588 -108.151,162.395c-12.946,65.599 -0.041,132.298 36.329,188.235l 101.237-175.351l 0.037-0.124c 6.971-20.904 19.617-39.33 36.586-53.331
c 20.917-17.255 47.352-26.761 74.427-26.761c 13.799,0 27.262,2.361 40.116,7.038zM 486.314,336.704l-231.964,0 c-11.148-0.157 -22.22-1.938 -32.86-5.281c-44.106-13.873 -73.889-51.908 -79.439-94.934l-85.52,148.132
c 23.105,28.375 52.035,51.577 84.959,67.94c 127.211,63.227 281.597,11.356 344.824-115.857zM 255.652-31.5l-0.010,0 c-5.459,0 -10.991,0.178 -16.483,0.53l 106.629,180.311c 16.137,20.495 25.043,46.023 25.163,71.997
c 0.165,36.077 -16.349,70.122 -44.491,92.4l 167.271,0 c 13.156-34.744 18.633-72.572 15.843-109.519c-4.879-64.51 -33.73-124.193 -81.238-168.052c-47.26-43.634 -108.596-67.668 -172.683-67.668z"  />
<glyph unicode="&#xe07f;" d="M 477.047,284.253c 44.435-122.082 -18.514-257.067 -140.593-301.504c-26.548-9.663 -53.727-14.249 -80.435-14.249c-96.098,0 -186.295,59.312 -221.067,154.843c-42.352,116.367 12.852,244.458 123.845,294.677
c-12.271-2.014 -24.723,4.923 -29.121,17.009c-4.968,13.649 2.138,28.884 15.788,33.853l 24.819,9.033c 13.65,4.967 28.885-2.137 33.852-15.788c 4.424-12.153 -0.734-25.543 -11.55-31.843
c 21.068,5.922 42.372,8.811 63.398,8.811c 96.085,0 186.295-59.317 221.063-154.842zM 433.287,121.126c 22.084,47.355 24.402,100.477 6.532,149.576c-14.004,38.478 -39.169,71.036 -72.768,94.151
c-16.209,11.151 -33.948,19.789 -52.728,25.674c-18.954,5.938 -38.584,8.95 -58.341,8.95c-22.761,0 -45.267-3.991 -66.888-11.86c-49.1-17.872 -88.301-53.793 -110.385-101.15c-22.084-47.355 -24.402-100.473 -6.532-149.573
c 14.009-38.483 39.169-71.043 72.768-94.156c 16.205-11.15 33.942-19.786 52.725-25.67c 18.953-5.938 38.583-8.948 58.349-8.948c 22.757,0 45.263,3.989 66.884,11.859c 49.1,17.87 88.301,53.794 110.385,101.147z
M 309.413,238.368l 65.645,6.857l-54.67-36.928c 0.689-7.78 -0.123-15.501 -2.262-22.794l 29.967-24.296l-37.876,7.331c-4.213-6.323 -9.604-11.908 -16.010-16.381l 6.857-65.617l-36.927,54.666
c-1.811-0.159 -3.615-0.245 -5.415-0.245c-7.722,0 -15.295,1.474 -22.357,4.21l-66.826-74.559l-3.651-4.053l 46.398,95.404c-1.515,1.715 -2.934,3.53 -4.26,5.428l-65.647-6.855l 54.668,36.923
c-0.688,7.782 0.123,15.504 2.264,22.797l-29.966,24.3l 37.876-7.335c 4.212,6.326 9.606,11.911 16.007,16.385l-6.854,65.614l 36.923-54.666c 1.812,0.161 3.616,0.245 5.415,0.245
c 7.312,0.002 14.474-1.341 21.21-3.802l 71.629,78.202l-0.811-1.622l-46.38-92.859c 1.819-1.979 3.488-4.117 5.052-6.351zM 218.553,174.847l 19.854,40.824l 31.91,34.839
c-3.745,0.921 -7.631,1.416 -11.596,1.416l-0.003,0 c-5.707,0 -11.346-1.001 -16.765-2.972c-12.306-4.48 -22.13-13.483 -27.666-25.354c-5.535-11.868 -6.117-25.182 -1.638-37.486
c 1.478-4.066 3.492-7.827 5.903-11.268zM 245.953,211.557c-2.499-3.185 -4.219-7.833 -3.681-12.157c 0.573-4.607 3.097-8.485 6.633-10.949c 3.068-2.132 6.895-3.205 10.902-2.706
c 5.27,0.656 9.966,4.707 12.29,9.053c 1.184,2.574 1.733,5.47 1.358,8.483c-0.583,4.7 -3.195,8.645 -6.839,11.090c-3.030,2.037 -6.775,3.048 -10.69,2.563c-4.047-0.506 -7.517-2.514 -9.974-5.376z
M 303.152,182.161c 5.536,11.87 6.116,25.183 1.637,37.488c-1.648,4.527 -3.948,8.69 -6.736,12.435l-20.4-40.847l-31.907-35.6c 4.172-1.156 8.522-1.802 12.979-1.802c 5.703,0 11.343,1.003 16.764,2.978
c 12.306,4.478 22.13,13.479 27.664,25.348zM 182.586,350.813l-0.683,1.878l 12.523,4.555l 26.378-15.878l-4.579,12.584c-0.729,2.001 -1.401,3.438 -2.021,4.319c-0.621,0.88 -1.31,1.451 -2.055,1.71
c-0.586,0.189 -1.37,0.254 -2.354,0.189c-0.985-0.068 -1.77-0.154 -2.351-0.258l-0.664,1.828l 14.275,5.199l 0.664-1.828c-0.419-0.208 -1.011-0.521 -1.779-0.944
c-0.768-0.422 -1.392-0.993 -1.871-1.715c-0.425-0.63 -0.569-1.506 -0.44-2.617c 0.13-1.112 0.556-2.659 1.279-4.646l 8.652-23.776l-4.173-1.521l-30.088,18.18l 5.683-15.615
c 0.704-1.937 1.371-3.366 1.998-4.278c 0.623-0.917 1.312-1.502 2.060-1.76c 0.547-0.191 1.332-0.25 2.349-0.182c 1.021,0.067 1.821,0.159 2.401,0.263l 0.665-1.828l-14.3-5.204
l-0.667,1.828c 0.595,0.269 1.25,0.635 1.974,1.104c 0.724,0.468 1.284,0.983 1.679,1.551c 0.444,0.676 0.615,1.516 0.509,2.509c-0.106,0.998 -0.554,2.572 -1.339,4.732l-5.733,15.755
c-0.283,0.779 -0.674,1.479 -1.168,2.087c-0.497,0.604 -1.094,1.062 -1.792,1.379c-0.739,0.332 -1.521,0.521 -2.343,0.567c-0.826,0.047 -1.722-0.013 -2.688-0.167zM 328.753,60.386
c 0.523-1.438 0.696-2.953 0.515-4.545c-0.184-1.593 -0.683-3.040 -1.496-4.347c-0.895-1.442 -2.064-2.728 -3.513-3.855c-1.445-1.13 -3.266-2.092 -5.452-2.891
c-2.032-0.739 -4.020-1.175 -5.964-1.306c-1.942-0.133 -3.648-0.077 -5.119,0.167l-1.021-2.228l-1.992-0.727l-4.684,11.913l 2.017,0.734c 0.868-0.976 1.887-1.974 3.053-2.984
c 1.166-1.012 2.392-1.855 3.681-2.519c 1.333-0.708 2.713-1.175 4.133-1.401c 1.42-0.228 2.917-0.055 4.495,0.521c 2.128,0.771 3.564,1.887 4.32,3.339c 0.756,1.451 0.847,2.972 0.271,4.55
c-0.472,1.299 -1.353,2.215 -2.636,2.749c-1.281,0.535 -3.049,0.759 -5.3,0.667c-1.465-0.059 -2.815-0.104 -4.051-0.146c-1.232-0.036 -2.403-0.045 -3.511-0.022
c-2.56,0.077 -4.683,0.749 -6.374,2.016c-1.69,1.261 -2.906,2.922 -3.652,4.972c-0.472,1.298 -0.646,2.649 -0.52,4.052c 0.125,1.401 0.556,2.776 1.288,4.123c 0.706,1.267 1.761,2.474 3.165,3.625
c 1.405,1.147 3.053,2.068 4.943,2.758c 1.848,0.673 3.666,1.039 5.466,1.112c 1.799,0.067 3.25,0.014 4.36-0.168l 0.917,1.928l 2.041,0.744l 4.319-11.277l-2.021-0.734
c-0.91,1.053 -1.919,2.101 -3.017,3.144c-1.098,1.049 -2.15,1.869 -3.162,2.454c-1.098,0.631 -2.245,1.034 -3.443,1.212c-1.196,0.178 -2.468,0.022 -3.811-0.468
c-1.689-0.617 -2.895-1.597 -3.618-2.938c-0.721-1.349 -0.827-2.723 -0.313-4.134c 0.484-1.328 1.347-2.25 2.583-2.754c 1.235-0.508 2.956-0.726 5.159-0.647
c 1.301,0.031 2.622,0.066 3.971,0.112c 1.345,0.046 2.552,0.060 3.62,0.046c 2.586-0.055 4.75-0.636 6.491-1.746c 1.744-1.117 3.027-2.813 3.86-5.101zM 133.287,157.22
c 0.508-5.743 1.032-11.714 1.576-17.911l-3.697-1.343l-15.832,22.23l 2.821-26.967l-3.692-1.343c-4.803,6.855 -8.493,12.137 -11.072,15.848c-2.579,3.706 -4.747,6.813 -6.503,9.326
c-0.54,0.764 -1.024,1.279 -1.456,1.557c-0.431,0.271 -0.949,0.525 -1.559,0.749c-0.431,0.159 -0.854,0.235 -1.276,0.235c-0.42-0.005 -0.888-0.055 -1.403-0.149l-0.667,1.828
l 13.85,5.040l 0.649-1.782c-0.771-0.422 -1.334-0.768 -1.694-1.030c-0.358-0.263 -0.631-0.499 -0.817-0.707c-0.174-0.204 -0.258-0.386 -0.256-0.545
c 0.002-0.158 0.025-0.295 0.063-0.398c 0.079-0.223 0.177-0.427 0.295-0.612c 0.115-0.187 0.247-0.403 0.393-0.653c 0.737-1.11 2.168-3.207 4.298-6.287
c 2.13-3.081 4.767-6.899 7.905-11.469l-2.897,26.376l 3.879,1.41l 15.935-22.506c-0.451,4.387 -0.837,7.962 -1.162,10.729c-0.321,2.768 -0.606,5.135 -0.853,7.096
c-0.161,1.201 -0.305,2.204 -0.43,3.008c-0.129,0.803 -0.292,1.475 -0.489,2.022c-0.12,0.327 -0.341,0.567 -0.664,0.712c-0.322,0.15 -0.717,0.236 -1.181,0.265
c-0.39,0.014 -0.873-0.032 -1.446-0.142c-0.573-0.112 -1.068-0.218 -1.485-0.313l-0.683,1.874l 10.444,3.802l 0.684-1.874c-0.36-0.186 -0.701-0.431 -1.020-0.729
c-0.316-0.305 -0.613-0.648 -0.889-1.029c-0.413-0.612 -0.651-1.202 -0.715-1.774c-0.061-0.57 -0.063-1.232 -0.007-1.991c 0.191-2.623 0.543-6.807 1.054-12.55zM 418.334,257.183
l 3.14-10.593l-31.209-11.358l-0.665,1.833c 0.428,0.189 0.998,0.467 1.714,0.834c 0.717,0.367 1.209,0.671 1.477,0.906c 0.503,0.468 0.784,0.927 0.851,1.385
c 0.062,0.458 -0.014,0.983 -0.229,1.578l-8.542,23.469c-0.207,0.563 -0.461,0.998 -0.768,1.307c-0.309,0.299 -0.842,0.485 -1.605,0.54c-0.472,0.041 -1.106,0.004 -1.896-0.104
c-0.794-0.112 -1.386-0.213 -1.777-0.304l-0.666,1.829l 29.496,10.738l 3.090-8.488l-1.783-0.648c-0.912,1.098 -2.157,2.087 -3.738,2.979c-1.578,0.885 -2.962,1.248 -4.137,1.084
c-0.509-0.063 -1.188-0.236 -2.030-0.517c-0.847-0.277 -1.543-0.518 -2.089-0.718l-4.827-1.76l 4.666-12.825l 3.423,1.248c 0.857,0.313 1.605,0.698 2.234,1.157
c 0.628,0.458 1.127,1.084 1.494,1.874c 0.228,0.49 0.361,1.252 0.399,2.295c 0.035,1.039 -0.015,1.915 -0.147,2.626l 1.78,0.649l 5.054-13.882l-1.782-0.649
c-0.331,0.626 -0.871,1.361 -1.615,2.219c-0.743,0.849 -1.355,1.401 -1.835,1.651c-0.719,0.377 -1.473,0.544 -2.253,0.495c-0.779-0.041 -1.633-0.236 -2.554-0.572l-3.421-1.243l 3.489-9.59
c 0.364-1.003 0.726-1.77 1.089-2.3c 0.362-0.531 0.803-0.88 1.32-1.043c 0.501-0.154 1.105-0.154 1.822-0.004c 0.712,0.153 1.656,0.444 2.831,0.871
c 0.544,0.199 1.197,0.448 1.96,0.744c 0.757,0.289 1.413,0.585 1.964,0.87c 0.628,0.317 1.197,0.658 1.71,1.025c 0.514,0.358 0.857,0.744 1.030,1.144
c 0.472,1.039 0.893,2.514 1.257,4.428c 0.367,1.91 0.559,3.312 0.571,4.201z"  />
<glyph unicode="&#xe080;" d="M 511.485,272.17c 0.264-8.365 -2.982-36.443 -3.609-45.206c-1.139-15.899 -2.93-22.058 -4.755-34.171c-7.742-51.348 -37.215-103.447 -71.458-139.32c-44.452-46.572 -106.927-75.776 -176.232-76.461
c-0.825-0.007 -1.649-0.029 -2.478-0.029c-0.518,0 -1.031,0.012 -1.548,0.015c-0.391-0.002 -0.778-0.015 -1.169-0.015c-136.427,0 -247.020,110.594 -247.020,247.019
c0,14.372 1.242,28.452 3.598,42.152l-5.296-4.313c-0.517,1.804 -0.777,3.735 -0.843,5.736c-0.056-0.091 -0.114-0.181 -0.176-0.28c 0.382,9.672 2.572,20.989 10.21,34.615
c 2.939,5.338 8.708,14.289 13.089,20.917c 1.761,4.029 3.625,8.003 5.591,11.918c-0.103,44.401 8.767,75.303 26.605,92.791c 2.392-15.752 6.102-28.357 11.080-37.801c 45.198,49.92 110.515,81.281 183.161,81.281
c 93.286,0 174.484-51.717 216.514-128.037c 2.993,4.51 6.589,9.526 5.575,15.052c 18.199-28.117 25.429-69.057 28.45-103.482c 0.404-4.625 10.562,22.326 10.711,17.619zM 161.783,433.406
c-27.060-11.445 -51.366-27.833 -72.24-48.712c-3.379-3.379 -6.629-6.858 -9.771-10.415c 1.584-1.139 3.233-2.107 4.953-2.896l-0.117-0.115c 22.87,8.735 42.743,10.059 59.505,3.944
c 20.231,19.398 42.978,30.653 68.127,33.767c-13.537-9.101 -28.62-26.456 -28.62-26.456c-4.786-8.025 -8.145-17.36 -10.178-28.258c-0.357-0.238 4.071-5.268 4.071-5.268l 14.727-14.365
c 5.749-5.509 10.415-8.743 14.13-9.82l 0.12,0.361c 8.977-1.8 17.96-2.399 26.938-1.915c 4.307-2.638 -1.677-18.317 -5.992-20.594c-9.69-5.509 -21.064-14.126 -33.878-25.98l0-0.242 
c 8.261-14.003 11.251-27.653 8.977-40.703c-13.643,3.953 -25.734,6.344 -36.275,7.301l-14.727-19.755l 3.834-5.624c 9.579-11.851 19.513-21.314 29.811-28.369c 15.684-10.063 31.844-10.424 48.608-0.961
c 17.598,11.135 34.477,12.451 50.643,4.059c 7.424-4.182 13.173-8.972 16.998-14.239c 2.63-7.060 -0.115-11.25 -8.013-12.327c-3.837,1.796 -7.786,1.911 -11.977,0.354l 0.119-0.106l-32.327-20.964
c-19.721-9.978 -42.114-14.233 -66.679-12.188c 15.718-15.851 33.401-26.996 52.898-33.533c-0.132-0.004 -0.264-0.008 -0.395-0.013c 0.136,0.005 0.271,0 0.407,0.005
c 13.287-4.318 27.419-6.582 42.375-6.71c 37.842,1.441 68.253,15.491 97.936,59.917c 1.088-10.664 -0.834-24.186 -5.62-40.708c 25.262,27.056 37.839,77.527 31.001,133.68c 4.915-3.83 7.074-23.655 13.063-41.857
c 8.738,27.299 7.657,61.895 -3.125,103.799c 8.74-2.629 15.571-7.897 20.719-15.917c 3.838,38.188 -29.572,71.236 -99.971,99.008c 9.82,3.83 20.952,4.668 33.291,2.396c-4.081,8.978 -12.819,16.523 -26.112,22.39
c-8.612,3.953 -19.274,7.068 -31.837,9.574c 23.373-0.686 44.19-3.207 62.391-7.5c-9.834,6.076 -20.139,11.413 -30.883,15.958c-28.005,11.845 -57.765,17.851 -88.452,17.851c-30.689,0 -60.448-6.006 -88.453-17.851z"  />
<glyph unicode="&#xe081;" d="M 484.205,365.27l-2.667,2.663s 39.463,97.757 -43.988,97.757c-52.653,0 -113.632-43.138 -113.632-43.138s 172.551-28.407 158.874-226.208l-285.131,0 s-4.206-76.805 69.442-76.805c 53.655,0 64.177,48.397 64.177,48.397l 149.403,0 
s-39.977-148.354 -208.321-148.354c-39.978,0 -54.708,3.16 -54.708,3.16s-68.387-54.241 -135.726-54.241s-73.652,73.182 -64.183,105.794c 9.469,32.617 47.347,192.602 207.271,301.965l0,7.365 s-108.371-45.243 -186.227-156.77
c0,0 -3.16,108.371 92.586,169.396c 87.857,53.131 175.706,29.461 175.706,29.461s 73.653,53.658 132.572,53.658c0,0 91.831,8.581 44.55-114.101zM 209.303,24.93c-99.463,22.241 -133.441,85.256 -133.441,85.256
s-40.159-61.195 -15.447-104.408c 46.128-43.209 148.889,19.152 148.889,19.152zM 332.905,263.658c0,0 2.706,66.084 -66.088,66.083c-71.233,0 -69.519-66.083 -69.519-66.083l 135.606,0 z"  />
<glyph unicode="&#xe082;" d="M 254.924,479.5c 138.33,0 239.018-100.041 239.019-253.126c0-135.17 -95.242-257.874 -239.012-257.874c-142.369,0 -236.872,122.734 -236.872,257.874c0,151.869 97.268,253.126 236.865,253.126zM 254.931,25.545c 84.426,0 90.341,116.477 90.338,205.457
c0,62.684 -4.845,120.938 -26.126,156.885c-14.274,22.54 -34.858,36.915 -64.214,36.915c-0.088,0 -0.181-0.008 -0.273-0.008c-22.535-0.061 -39.691-8.249 -52.704-22.082c-29.82-32.95 -35.153-98.969 -35.153-172.035
c0-40.912 1.046-87.655 10.306-126.182c 8.56-33.217 23.188-60.345 47.477-72.591c 8.738-4.105 18.788-6.359 30.351-6.359z"  />
<glyph unicode="&#xe085;" d="M 120.606,311l 270.787,0 l0-220.663 c0-13.109 -10.628-23.737 -23.721-23.737l-27.123,0 l0-67.202 c0-17.066 -13.611-30.898 -30.415-30.898c-16.846,0 -30.438,13.831 -30.438,30.898l0,67.202 l-47.371,0 l0-67.202 
c0-17.066 -13.64-30.898 -30.441-30.898c-16.799,0 -30.436,13.831 -30.436,30.898l0,67.202 l-27.1,0 c-13.096,0 -23.743,10.628 -23.743,23.737l0,220.663 l 0.001,0 zM 67.541,312.801c 16.977,0 30.723-13.963 30.723-31.2l0-121.937 
c0-17.217 -13.746-31.204 -30.723-31.204c-16.974,0 -30.723,13.987 -30.723,31.204l0,121.937 c0,17.237 13.749,31.2 30.723,31.2zM 391.395,333.236l-270.788,0 c 3.342,38.578 28.366,71.775 64.392,90.998l-25.746,37.804
c-3.472,5.098 -2.162,12.054 2.946,15.525c 5.102,3.471 12.044,2.15 15.533-2.943l 28.061-41.232c 15.558,5.38 32.446,8.47 50.208,8.47c 17.783,0 34.672-3.090 50.228-8.477l 28.061,41.225
c 3.446,5.107 10.41,6.428 15.512,2.956c 5.108-3.471 6.418-10.427 2.946-15.524l-25.725-37.804c 36.023-19.21 61.031-52.408 64.371-90.997zM 213.865,385.655c0,8.272 -6.699,14.982 -14.969,14.982
c-8.291,0 -14.99-6.71 -14.99-14.982c0-8.27 6.721-14.977 14.99-14.977c 8.269,0 14.969,6.707 14.969,14.977zM 329.992,385.655c0,8.272 -6.723,14.982 -14.99,14.982c-8.291,0 -14.97-6.71 -14.97-14.982
c0-8.27 6.679-14.977 14.97-14.977c 8.27,0 14.99,6.707 14.99,14.977zM 444.48,312.844c 16.977,0 30.701-13.983 30.7-31.222l0-121.98 c0-17.238 -13.723-31.226 -30.7-31.226c-16.956,0 -30.744,13.988 -30.744,31.226l0,121.98 
c0,17.238 13.788,31.222 30.744,31.222z"  />
<glyph unicode="&#xe0c2;" d="M 66.084,479.5l 379.819,0 c 36.079,0 65.597-29.505 65.597-65.584l0-379.819 c0-36.079 -29.518-65.597 -65.597-65.597l-379.819,0 c-36.079,0 -65.584,29.518 -65.584,65.597l0,379.819 c0,36.079 29.505,65.584 65.584,65.584l0,0 zM 372.734,422.736
c-12.65,0 -23.006-10.355 -23.006-23.005l0-55.067 c0-12.65 10.354-23.005 23.006-23.005l 57.762,0 c 12.65,0 23.005,10.354 23.005,23.005l0,55.067 c0,12.649 -10.354,23.005 -23.005,23.005l-57.762,0 l0,0 zM 453.738,263.41l-44.976,0 
c 4.254-13.898 6.551-28.606 6.551-43.852c0-84.996 -71.111-153.897 -158.84-153.897c-87.716,0 -158.826,68.901 -158.826,153.897c0,15.245 2.295,29.954 6.55,43.852l-46.921,0 l0-215.854 c0-11.178 9.132-20.321 20.311-20.321l 355.841,0 
c 11.166,0 20.311,9.145 20.311,20.321l0,215.854 l-0.001,0 zM 256.475,324.553c-56.677,0 -102.625-44.524 -102.625-99.442s 45.948-99.443 102.625-99.443c 56.688,0 102.637,44.525 102.637,99.443s-45.948,99.442 -102.637,99.442z"  />
<glyph unicode="&#xe0c7;" d="M 0.513,224.013c0,37.027 7.959,72.208 22.132,103.972l 121.874-333.909c-85.245,41.407 -144.006,128.811 -144.006,229.938zM 428.476,236.899c0-21.856 -6.487-49.391 -19.439-82.6l-25.487-85.134l-92.332,274.638
c 15.37,0.798 29.23,2.42 29.23,2.42c 13.773,1.635 12.15,21.869 -1.622,21.046c0,0 -41.382-3.243 -68.092-3.243c-25.113,0 -67.293,3.243 -67.293,3.243c-13.773,0.824 -15.384-20.222 -1.622-21.046
c0,0 13.024-1.622 26.798-2.42l 39.797-109.062l-55.903-167.686l-93.042,276.747c 15.396,0.798 29.243,2.42 29.243,2.42c 13.761,1.635 12.126,21.869 -1.634,21.046c0,0 -41.381-3.243 -68.105-3.243
c-4.791,0 -10.441,0.125 -16.442,0.324c 45.685,69.352 124.207,115.149 213.47,115.149c 66.522,0 127.089-25.439 172.526-67.081c-1.086,0.063 -2.159,0.199 -3.308,0.199c-25.088,0 -42.891-21.857 -42.891-45.35
c0-21.046 12.139-38.86 25.088-59.92c 9.719-17.004 21.060-38.861 21.060-70.449zM 260.491,201.669l 78.535-215.155c 0.511-1.271 1.146-2.432 1.82-3.529c-26.548-9.345 -55.079-14.484 -84.847-14.484
c-25.064,0 -49.278,3.681 -72.171,10.404zM 480.199,346.573c 19.936-36.379 31.288-78.147 31.288-122.561c0-94.266 -51.074-176.542 -127.026-220.831l 78.035,225.621c 14.559,36.43 19.425,65.585 19.425,91.509
c0,9.395 -0.624,18.128 -1.722,26.262z"  />
<glyph unicode="&#xe0cc;" d="M 509.322,362.353c-5.875-30.923 -44.77-139.13 -115.276-234.62c-30.826-40.369 -66.857-80.029 -113.081-107.39c-17.076-10.125 -50.785-22.864 -73.207-13.342c-43.963,18.613 -59.563,94.597 -72.26,145.456
c-7.51,30.029 -14.579,58.456 -23.757,84.579c-6.865,19.604 -10.21,39.541 -20.927,57.725c-17.624,29.761 -42.888,1.162 -69.388,5.046c-11.232,1.646 -13.288,13.601 -20.927,20.895l0,2.873 c 38.508,30.708 72.432,67.924 116.945,94.091
c 13.976,8.231 37.787,17.064 57.035,11.405c 17.925-5.229 32.591-29.373 38.981-49.407c 7.413-23.283 11.405-51.494 15.182-74.143c 6.778-40.349 4.54-100.945 34.173-132.643c 32.9-35.204 57.98,13.632 71.365,38.508
c 11.59,21.573 21.949,44.092 23.746,64.632c 4.293,49.106 -19.065,55.714 -63.674,52.323c 25.176,78.124 99.147,110.757 121.021,114.114c 26.887,4.11 66.137,3.249 84.567-20.087c 13.202-16.624 13.298-38.616 9.479-60.017z"  />
<glyph unicode="&#xe0ce;" d="M 447.043,32.523c0-17.578 -6.273-32.66 -18.838-45.187c-12.549-12.563 -27.619-18.838 -45.197-18.838l-126.637,0 c-52.745,0 -97.831,18.726 -135.271,56.164c-37.443,37.438 -56.145,82.512 -56.145,135.27l0,255.494 
c0,18.089 6.23,33.284 18.701,45.61c 12.469,12.288 27.695,18.463 45.678,18.463c 17.447,0 32.448-6.288 44.899-18.85c 12.493-12.538 18.743-27.596 18.743-45.174l0-63.998 l 189.794,0 c 17.651,0 32.77-6.287 45.395-18.85
c 12.602-12.525 18.875-27.596 18.875-45.173c0-17.553 -6.273-32.623 -18.838-45.187c-12.549-12.524 -27.656-18.813 -45.234-18.813l-189.991,0 l0-63.462 c0-17.642 6.138-32.61 18.464-44.974
c 12.318-12.326 27.277-18.489 44.874-18.489l 126.654,0 c 17.578,0 32.687-6.299 45.234-18.837c 12.565-12.549 18.838-27.619 18.838-45.172z"  />
<glyph unicode="&#xe0cf;" d="M 459.186,328.213c 0.203-4.501 0.306-9.022 0.306-13.565c0-138.542 -105.461-298.285 -298.274-298.285c-59.209,0 -114.322,17.356 -160.716,47.103c 8.212-0.973 16.546-1.47 25.012-1.47
c 49.121,0 94.318,16.759 130.209,44.884c-45.887,0.841 -84.596,31.154 -97.938,72.804c 6.408-1.227 12.968-1.886 19.73-1.886c 9.551,0 18.816,1.287 27.617,3.68c-47.955,9.634 -84.1,52.002 -84.1,102.796
c0,0.445 0,0.882 0.011,1.317c 14.133-7.847 30.294-12.562 47.488-13.108c-28.134,18.796 -46.638,50.885 -46.638,87.262c0,19.212 5.16,37.218 14.193,52.7c 51.707-63.427 128.941-105.156 216.072-109.536
c-1.784,7.675 -2.718,15.674 -2.718,23.895c0,57.892 46.94,104.832 104.832,104.832c 30.173,0 57.403-12.733 76.524-33.102c 23.887,4.693 46.313,13.423 66.569,25.438c-7.827-24.484 -24.435-45.024 -46.089-58.002
c 21.209,2.535 41.426,8.171 60.222,16.505c-14.051-21.018 -31.833-39.48 -52.313-54.263z"  />
<glyph unicode="&#xe0d0;" d="M 412.904,74.223c 0.123,0.088 0.225,0.213 0.323,0.313l0-0.313 l0-89.784 c-17.043-9.107 -31.264-15.933 -105.418-15.933c-10.729,0 -20.659,0.074 -31.713,0c-48.542-0.324 -119.016,13.697 -119.016,92.305l0,185.101 
l0,22.767 l-58.31,0 l0,84.223 l 10.729,0 c 17.278,0 33.491,6.361 47.582,17.439c 8.745,6.862 16.623,15.606 23.447,25.774c 14.857,22.157 24.502,51.187 26.254,83.386l 69.526,0 l0-126.601 l 121.423,0 l0-62.453 l0-21.77 l-121.422,0 l0-84.658 l0-107.514 
c0-10.779 36.315-26.858 62.775-26.858s 52.41,10.94 73.818,24.576z"  />
<glyph unicode="&#xe0d5;" d="M 493.43,169.756c 9.27-18.65 14.496-39.659 14.496-61.891c0-76.975 -62.39-139.365 -139.365-139.365c-23.827,0 -46.258,5.988 -65.87,16.543c-14.273-2.646 -28.968-4.042 -44.015-4.042
c-132.727,0 -240.315,107.588 -240.315,240.316c0,16.556 1.684,32.724 4.878,48.331c-12.164,20.684 -19.163,44.762 -19.163,70.486c0,76.962 62.39,139.365 139.352,139.365c 27.259,0 52.672-7.859 74.156-21.383
c 13.362,2.296 27.085,3.518 41.094,3.518c 132.729,0 240.316-107.589 240.316-240.316c0-17.703 -1.933-34.944 -5.563-51.563zM 381.922,106.48c 11.166,15.781 16.816,33.833 16.819,53.621c0,16.543 -3.28,30.79 -9.769,42.317
c-6.461,11.503 -15.582,21.121 -27.096,28.619c-11.268,7.336 -25.102,13.648 -41.096,18.775c-15.808,5.052 -33.685,9.73 -53.134,13.898c-15.357,3.556 -26.572,6.3 -33.26,8.159c-6.512,1.797 -13.023,4.316 -19.337,7.498
c-6.088,3.044 -10.903,6.711 -14.322,10.878c-3.23,3.942 -4.79,8.508 -4.79,13.985c0,8.919 4.865,16.467 14.896,23.042c 10.405,6.812 24.402,10.279 41.631,10.279c 18.551,0 32.050-3.119 40.122-9.27
c 8.321-6.325 15.569-15.295 21.569-26.686c 5.178-8.906 9.844-15.12 14.348-19.087c 4.828-4.278 11.801-6.462 20.697-6.462c 9.793,0 18.090,3.481 24.678,10.33c 6.548,6.787 9.855,14.597 9.855,23.18
c0,8.933 -2.522,18.14 -7.513,27.422c-4.938,9.169 -12.799,18.002 -23.366,26.261c-10.491,8.195 -23.855,14.857 -39.685,19.786c-15.758,4.902 -34.621,7.385 -56.090,7.385c-26.835,0 -50.552-3.743 -70.5-11.116
c-20.21-7.472 -35.905-18.364 -46.647-32.386c-10.828-14.11 -16.317-30.479 -16.317-48.63c0-19.052 5.227-35.257 15.544-48.156c 10.156-12.726 24.053-22.893 41.282-30.216c 16.854-7.174 38.051-13.512 62.988-18.852
c 18.327-3.843 33.161-7.522 44.076-10.916c 10.493-3.268 19.101-8.033 25.649-14.146c 6.237-5.853 9.281-13.299 9.281-22.793c0-12.015 -5.813-21.821 -17.775-29.98c-12.251-8.371 -28.544-12.612 -48.418-12.612
c-14.447,0 -26.186,2.083 -34.907,6.213c-8.658,4.104 -15.432,9.344 -20.148,15.582c-4.903,6.487 -9.544,14.721 -13.812,24.477c-3.805,8.958 -8.558,15.896 -14.085,20.585c-5.789,4.891 -12.912,7.36 -21.171,7.36
c-10.055,0 -18.489-3.131 -25.076-9.331c-6.648-6.239 -10.030-13.873 -10.030-22.681c0-14.099 5.178-28.695 15.383-43.429c 10.105-14.584 23.429-26.386 39.572-35.119c 22.58-11.976 51.523-18.039 86.043-18.039
c 28.758,0 54.020,4.441 75.092,13.199c 21.282,8.846 37.712,21.309 48.815,37.054z"  />
<glyph unicode="&#xe0da;" d="M 137.177,36.916c0-37.464 -30.378-67.842 -67.83-67.842s-67.842,30.378 -67.842,67.842c0,37.477 30.392,67.843 67.842,67.843c 37.451,0 67.83-30.366 67.83-67.843zM 1.729,479.5c 280.539,0 508.767-229.227 508.766-511l-97.944,0 
c0,227.753 -184.302,413.066 -410.821,413.066l0,97.934 zM 1.58,305.89c 185.212,0 335.893-151.304 335.893-337.29l-97.921,0 c0,64.051 -24.776,124.183 -69.751,169.369c-44.912,45.124 -104.645,69.977 -168.221,69.977l0,97.944 z"  />
<glyph unicode="&#xe0db;" d="M 220.646,141.525c-13.424-70.351 -29.805-137.794 -78.347-173.025c-14.996,106.33 21.994,186.188 39.173,270.971c-29.293,49.292 3.519,148.498 65.285,124.060c 76.001-30.066 -65.809-183.279 29.38-202.417
c 99.405-19.975 139.989,172.476 78.359,235.054c-89.064,90.372 -259.244,2.058 -238.322-127.328c 5.090-31.626 37.766-41.22 13.063-84.884c-57.001,12.65 -74.005,57.6 -71.822,117.533c 3.53,98.107 88.141,166.787 173.024,176.293
c 107.34,12.014 208.080-39.398 221.99-140.376c 15.67-113.979 -48.441-237.412 -163.229-228.529c-31.115,2.42 -44.177,17.841 -68.554,32.649z"  />
<glyph unicode="&#xe0dc;" d="M 361.335,456.083l0-170.384 c-8.728,7.931 -187.812,170.482 -194.573,176.607c 28.815,10.807 58.763,16.657 89.221,16.657c 36.594,0.001 72-7.755 105.353-22.881l0,0 zM 124.472,5.251l0,0 c-47.707,28.845 -85.086,72.394 -105.564,123.747
c 2.943,2.664 97.029,88.179 105.564,95.948l0-219.695 zM 0.5,223.465l0,0 c0,96.346 53.278,183.144 139.060,227.178c 2.913-2.651 92.375-83.847 96.695-87.78c-4.432-4.035 -219.546-199.466 -226.474-205.766
c-5.97,22.122 -9.281,44.432 -9.281,66.368zM 151.313,112.428l0,0 c 5.489,0 324.967,0 334.181,0.001c-39.142-80.772 -117.921-135.176 -206.175-143.393l-46.916,0 c-27.956,2.601 -55.126,9.835 -81.090,21.487l0,121.904 zM 388.263,441.417l0,0 
c 76.029-46.274 123.237-129.163 123.237-217.952c0-28.622 -4.98-56.894 -14.504-84.121l-108.733,0 l0,302.073 z"  />
<glyph unicode="&#xe0dd;" d="M 368.034,479.5c 73.717,0 159.475-54.369 133.913-173.959c-22.569-105.619 -106.841-167.747 -207.645-167.747l-105.301,0 l-36.103-169.294l-147.454,0 l 111.332,511l 251.258,0 zM 363.518,305.541c 10.529,38.823 -13.537,69.888 -49.653,69.888l-72.208,0 
l-31.596-139.775l 69.203,0 c 37.619,0 75.223,31.064 84.254,69.888z"  />
<glyph unicode="&#xe0de;" d="M 256.018,220.844c-71.447,0 -129.359,57.899 -129.358,129.334c0,71.436 57.911,129.322 129.358,129.322c 71.423,0 129.31-57.887 129.311-129.322c0-71.435 -57.887-129.334 -129.311-129.334zM 256.018,413.804
c-35.169,0 -63.638-28.481 -63.638-63.625s 28.47-63.625 63.638-63.625c 35.132,0 63.612,28.481 63.612,63.625s-28.48,63.625 -63.612,63.625zM 405.075,205.062c 12.726-25.561 -1.634-37.925 -34.098-58.762
c-27.495-17.651 -65.172-24.327 -89.785-26.872l 20.584-20.598l 76.2-76.2c 11.591-11.589 11.591-30.352 0-41.943l-3.479-3.506c-11.589-11.577 -30.354-11.577 -41.943,0c-19.374,19.375 -47.281,47.295 -76.225,76.214
l-76.201-76.214c-11.589-11.577 -30.352-11.577 -41.943,0l-3.479,3.506c-11.59,11.577 -11.59,30.355 0,41.932c 19.375,19.375 47.283,47.308 76.201,76.213l 20.535,20.535c-24.591,2.482 -62.69,9.132 -90.411,26.935
c-32.462,20.835 -46.847,33.198 -34.097,58.761c 7.299,14.672 27.509,26.872 54.382,5.701c 36.341-28.619 94.701-28.619 94.701-28.619s 58.323,0 94.664,28.619c 26.887,21.171 47.109,8.971 54.395-5.701z"  />
<glyph unicode="&#xe0e4;" d="M 170.591,240.594l-169.007-189.856c-0.433,1.911 -1.084,3.759 -1.084,5.852l0,334.822 c0,2.541 0.71,4.837 1.356,7.144zM 493.987,414.476l-237.977-222.733l-237.961,222.733c 1.313,0.277 2.473,0.876 3.77,0.876l 468.378,0 
c 1.366,0 2.552-0.599 3.79-0.876zM 262.808,166.978l 62.274,58.218l 170.358-191.341c-1.709-0.523 -3.354-1.207 -5.243-1.207l-468.378,0 c-1.8,0 -3.466,0.684 -5.163,1.207l 170.37,191.341l 62.21-58.218
c 1.933-1.868 4.355-2.776 6.774-2.776c 2.425,0 4.843,0.908 6.797,2.776zM 341.494,240.594l 168.745,157.95c 0.64-2.296 1.26-4.634 1.26-7.133l0-334.822 c0-2.072 -0.566-3.92 -1.025-5.831z"  />
<glyph unicode="&#xe0e5;" d="M 116.504-20.219l0,0.001 l-109.529,0 l0,329.563 l 109.529,0 l0-329.564 zM 61.751,354.326l0-0.001 l-0.721,0 c-36.758,0 -60.53,25.328 -60.53,56.953c0,32.328 24.494,56.94 61.967,56.941c 37.467,0 60.53-24.612 61.252-56.94
c0-31.625 -23.785-56.953 -61.968-56.953zM 177.124-20.219c0,0 1.437,298.643 0,329.563l 109.546,0 l0-47.794 l-0.727,0 c 14.403,22.49 40.353,55.533 99.439,55.533c 72.085,0 126.116-47.102 126.116-148.333l0-188.971 l-109.528,0 l0,176.308 
c0,44.301 -15.848,74.531 -55.497,74.531c-30.254,0 -48.283-20.38 -56.201-40.080c-2.897-7.012 -3.603-16.861 -3.603-26.711l0-184.047 l-109.546,0 l0,0 z"  />
<glyph unicode="&#xe0e6;" d="M 308.214,142.139l-5.663,13.065l-48.621,115.689c-16.056,40.932 -56.085,68.602 -101.197,68.602c-61.043,0 -110.576-51.706 -110.576-115.524c0-63.756 49.533-115.493 110.576-115.493c 42.617,0 79.603,25.164 98.061,62.008l 19.668-47.329
c-27.876-35.526 -70.298-58.155 -117.729-58.155c-84.089-0.002 -152.233,71.114 -152.233,158.969c0,87.834 68.144,159.033 152.231,159.033c 63.445,0 114.695-35.361 140.74-98.093c 1.946-4.865 27.517-67.255 49.834-120.369
c 13.788-32.856 25.537-54.678 63.776-56.023c 37.441-1.324 63.249,22.484 63.249,52.648c0,29.45 -19.7,36.542 -52.825,48.042c-59.543,20.486 -90.308,41.065 -90.308,90.401c0,48.114 31.303,80.205 82.295,80.205
c 33.137,0 57.162-15.425 73.756-46.17l-32.618-17.369c-12.234,17.908 -25.765,25 -42.97,25c-23.935,0 -40.94-17.382 -40.94-40.466c0-32.805 28.096-37.741 67.349-51.179c 52.865-17.98 77.431-38.529 77.431-89.801
c0-53.86 -44.232-93.093 -102.006-93.010c-53.238,0.238 -81.633,27.412 -101.28,75.319z"  />
<glyph unicode="&#xe0ee;" d="M 245.271,455.297c 4.217-2.606 8.944-6.438 14.209-11.453c 5.053-5.24 10.018-11.677 14.87-19.311c 4.616-7.211 8.746-15.719 12.339-25.538c 2.944-9.818 4.417-21.271 4.417-34.37
c-0.399-24.003 -5.701-43.216 -15.906-57.612c-5.003-6.985 -10.292-13.424 -15.895-19.325c-6.2-5.9 -12.788-11.889 -19.787-18.002c-4.017-4.142 -7.723-8.833 -11.104-14.085c-4.017-5.451 -6-11.789 -6-18.976
c0-6.998 2.046-12.774 6.15-17.355c 3.479-4.379 6.887-8.184 10.154-11.465l 22.769-18.65c 14.146-11.577 26.561-24.34 37.227-38.313c 10.056-14.172 15.271-32.734 15.693-55.652
c0-32.513 -14.371-61.317 -43.078-86.419c-29.791-25.962 -72.757-39.398 -128.91-40.27c-47.008,0.449 -82.102,10.467 -105.281,30.066c-23.403,18.302 -35.105,40.195 -35.105,65.671c0,12.426 3.805,26.262 11.428,41.507
c 7.373,15.258 20.759,28.656 40.109,40.184c 21.72,12.426 44.588,20.71 68.49,24.852c 23.679,3.468 43.353,5.438 59.023,5.876c-4.841,6.35 -9.157,13.161 -12.938,20.41c-4.416,7.022 -6.638,15.457 -6.638,25.338
c0,5.938 0.849,10.865 2.532,14.82c 1.472,4.166 2.857,8.010 4.104,11.502c-7.622-0.873 -14.82-1.31 -21.569-1.31c-35.717,0.437 -62.952,11.677 -81.69,33.721c-19.599,20.511 -29.404,44.4 -29.404,71.686
c0,32.96 13.885,62.852 41.655,89.7c 19.088,15.693 38.924,25.961 59.509,30.765c 20.35,4.142 39.438,6.213 57.239,6.213l 134.226,0 l-41.457-24.203l-41.381,0 zM 271.184,68.966c0,17.029 -5.553,31.875 -16.668,44.525
c-11.752,12.002 -30.115,26.734 -55.116,44.201c-4.279,0.437 -9.308,0.66 -15.070,0.66c-3.418,0.449 -12.164,0 -26.286-1.321c-13.898-1.946 -28.095-5.115 -42.629-9.481
c-3.418-1.322 -8.234-3.269 -14.421-5.914c-6.201-2.818 -12.5-6.86 -18.913-12.101c-6.201-5.452 -11.428-12.227 -15.707-20.311c-4.915-8.509 -7.385-18.764 -7.385-30.776
c0-23.566 10.69-42.98 32.075-58.273c 20.298-15.282 48.067-23.13 83.323-23.579c 31.625,0.449 55.778,7.423 72.446,20.959c 16.253,13.324 24.351,30.453 24.351,51.412zM 177.628,265.693
c 17.653,0.66 32.387,6.999 44.151,19.024c 5.676,8.533 9.318,17.279 10.954,26.261c 0.984,8.958 1.483,16.493 1.483,22.618c0,26.46 -6.773,53.147 -20.323,80.057c-6.35,12.899 -14.684,23.392 -25.063,31.476
c-10.567,7.647 -22.718,11.702 -36.503,12.139c-18.165-0.437 -33.297-7.76 -45.35-21.981c-10.167-14.87 -15.032-31.488 -14.582-49.852c0-24.276 7.099-49.527 21.296-75.776c 6.886-12.251 15.769-22.63 26.635-31.164
c 10.866-8.533 23.316-12.8 37.301-12.8zM 509.965,406.206l0-34.121 l-70.436,0 l0-70.436 l-34.121,0 l0,70.436 l-70.439,0 l0,34.121 l 70.439,0 l0,70.425 l 34.121,0 l0-70.425 l 70.436,0 z"  />
<glyph unicode="&#xe0ef;" d="M 336.199,455.297c 4.217-2.62 8.959-6.438 14.223-11.453c 5.053-5.24 10.019-11.677 14.857-19.311c 4.641-7.199 8.746-15.719 12.326-25.538c 2.942-9.818 4.43-21.271 4.43-34.37
c-0.398-24.016 -5.703-43.216 -15.896-57.612c-5.004-6.985 -10.305-13.424 -15.905-19.325c-6.199-5.9 -12.802-11.889 -19.8-18.002c-3.991-4.142 -7.696-8.845 -11.092-14.071
c-4.004-5.465 -5.987-11.79 -5.987-18.988c0-6.986 2.047-12.774 6.151-17.365c 3.479-4.367 6.861-8.185 10.142-11.453l 22.77-18.663c 14.158-11.565 26.572-24.327 37.227-38.301
c 10.058-14.172 15.283-32.734 15.695-55.641c0-32.524 -14.361-61.33 -43.080-86.431c-29.776-25.976 -72.744-39.398 -128.896-40.272c-47.008,0.437 -82.114,10.454 -105.294,30.066
c-23.404,18.289 -35.106,40.195 -35.106,65.671c0,12.426 3.805,26.249 11.428,41.494c 7.386,15.271 20.747,28.669 40.109,40.195c 21.732,12.426 44.575,20.71 68.491,24.839c 23.69,3.48 43.377,5.439 59.020,5.876
c-4.84,6.362 -9.144,13.175 -12.935,20.41c-4.43,7.023 -6.626,15.471 -6.626,25.352c0,5.913 0.849,10.865 2.52,14.82c 1.485,4.166 2.845,7.996 4.106,11.502c-7.624-0.873 -14.81-1.298 -21.572-1.298
c-35.717,0.425 -62.952,11.665 -81.678,33.709c-19.611,20.511 -29.405,44.413 -29.405,71.686c0,32.96 13.885,62.84 41.656,89.686c 19.087,15.707 38.911,25.962 59.482,30.777c 20.36,4.142 39.435,6.213 57.251,6.213l 134.226,0 
l-41.443-24.203l-41.394,0 l0,0.001 zM 362.125,68.953c0,17.042 -5.553,31.875 -16.668,44.538c-11.752,12.002 -30.129,26.734 -55.143,44.201c-4.267,0.437 -9.281,0.66 -15.060,0.66c-3.418,0.425 -12.176,0 -26.286-1.321
c-13.885-1.959 -28.106-5.115 -42.629-9.481c-3.418-1.322 -8.221-3.294 -14.434-5.9c-6.2-2.832 -12.488-6.874 -18.9-12.113c-6.201-5.465 -11.428-12.227 -15.707-20.311
c-4.915-8.509 -7.373-18.764 -7.373-30.776c0-23.566 10.68-43.003 32.050-58.273c 20.311-15.295 48.081-23.143 83.351-23.579c 31.612,0.438 55.777,7.411 72.433,20.959c 16.243,13.323 24.366,30.439 24.366,51.398z
M 268.544,265.693c 17.679,0.647 32.399,6.985 44.163,19.038c 5.689,8.508 9.346,17.267 10.953,26.224c 0.986,8.981 1.473,16.518 1.473,22.643c0,26.46 -6.762,53.134 -20.311,80.043c-6.338,12.899 -14.695,23.393 -25.051,31.488
c-10.579,7.647 -22.742,11.702 -36.491,12.139c-18.189-0.437 -33.31-7.76 -45.374-21.981c-10.155-14.871 -15.033-31.488 -14.598-49.853c0-24.276 7.111-49.541 21.321-75.776c 6.874-12.251 15.744-22.644 26.623-31.164
c 10.88-8.532 23.318-12.799 37.291-12.799z"  />
<glyph unicode="&#xe0f0;" d="M 511.5,33.247l0,0 l0,0 l-511,0 l0,381.506 l 511,0 l0-381.506 zM 438.245,111.448l0,0 l0,0 l-144.704,102.324l-36.176-31.78l-40.74,34.519l-134.664-108.435l-1.816-0.605l-0.614,0 l0-70.247 l 358.715,0 l0,74.225 zM 438.245,124.572l0,0 l0,0 l0,214.735 l-137.114-118.818z
M 415.453,410.785l0,0 l0,0 l-314.352,0.605l 154.437-153.637l 1.518,1.211l 1.222,1.229l 1.815,0.912l 1.527,1.845l 2.123,1.509l 5.16,4.284l 2.748,3.074l 3.344,2.72l 3.344,3.371l 3.959,3.354l 8.195,7.954l 4.574,4.267
l 5.159,4.284l 4.871,5.188l 5.457,5.197l 11.867,11.298l 12.462,12.519l 6.688,6.726l 7.294,6.725l 7.004,7.33l 7.6,7.33l 7.898,7.945l 8.514,7.943l 8.205,8.532l 8.812,8.569zM 208.727,223.236l0,0 l0,0 l-128.898,109.655
l-0.298-212.893z"  />
<glyph unicode="&#xe0f2;" d="M 300.264,454.112c-93.306,0 -115.425-92.232 -124.169-186.147l-50.737,0 c-6.325-15.669 -7.909-36.079 -10.155-55.815c 2.395-0.499 5.114-0.688 8.009-0.688c 8.234,0 17.952,1.473 26.161,1.473
c 7.485,0 13.748-1.222 16.567-5.863c-8.883-74.031 -27.31-138.517 -35.506-213.184l 65.972,0 c 11.964,74.33 22.967,149.608 40.607,218.262c 4.555-0.649 8.759-0.961 12.663-0.961c 43.477,0 49.465,37.476 73.606,56.775
c-3.719,0.523 -7.774,0.711 -12.015,0.711c-12.039,0 -25.601-1.521 -37.627-1.521c-10.805,0 -20.348,1.222 -26.473,5.888c-4.879,58.198 20.398,116.135 62.053,116.135c 13.324,0 28.32-5.926 44.537-19.686
c 14.971,13.761 34.035,23.479 40.596,45.685c-24.314,12.538 -38.088,31.102 -60.893,35.519c-11.988,2.333 -23.029,3.418 -33.197,3.418zM 300.264,479.5l0,0 c 11.926,0 24.713-1.31 38.014-3.88
c 19.373-3.768 33.459-14.222 45.872-23.454c 7.188-5.339 13.961-10.38 21.846-14.434l 18.649-9.632l-5.938-20.11c-7.236-24.415 -24.067-37.876 -37.59-48.692c-3.691-2.932 -7.174-5.714 -10.205-8.496
l-16.492-15.158l-17.080,14.497c-10.541,8.934 -20.26,13.661 -28.145,13.661c-2.158,0 -8.732,0 -16.654-8.607c-12.014-13.075 -19.6-36.953 -20.51-62.665l 1.608,0 c 5.24,0 11.104,0.35 17.291,0.724
c 6.662,0.399 13.562,0.812 20.336,0.812c 5.826,0 10.902-0.313 15.507-0.948l 58.485-8.084l-46.108-36.866c-5.191-4.154 -9.969-10.791 -15.070-17.827c-12.789-17.715 -30.017-41.581 -67.344-44.275
c-12.588-53.633 -21.832-111.795 -30.827-168.283c-1.473-9.32 -2.956-18.614 -4.441-27.934l-3.456-21.346l-21.606,0 l-65.972,0 l-28.332,0 l 3.095,28.157c 4.367,39.673 11.553,76.675 18.514,112.468
c 4.903,25.226 9.943,51.113 13.91,77.723c-4.678-0.387 -9.494-0.761 -14.409-0.761c-4.916,0 -9.22,0.386 -13.137,1.197l-22.718,4.69l 2.619,23.029c 0.262,2.37 0.536,4.753 0.799,7.111
c 2.046,18.838 4.179,38.313 11.027,55.342l 6.413,15.894l 17.142,0 l 27.895,0 c 4.516,37.59 12.675,80.269 30.752,114.714c 24.901,47.394 64.012,71.435 116.26,71.435l0,0 z"  />
<glyph unicode="&#xe0f6;" d="M 242.549,224c0-66.844 -54.182-121.026 -121.024-121.026c-66.843,0.001 -121.024,54.183 -121.024,121.026c0,66.843 54.182,121.024 121.024,121.024c 66.844,0.001 121.024-54.182 121.024-121.024zM 390.475,345.025
c 66.844,0 121.025-54.183 121.025-121.024c0-66.844 -54.181-121.026 -121.025-121.026c-66.842,0 -121.023,54.183 -121.023,121.026c0,66.842 54.181,121.024 121.023,121.024z"  />
<glyph unicode="&#xe0f7;" d="M 316.865,332.912c 54.941-31.838 106.791-69.115 106.403-164.653c-0.386-83.287 -86.405-167.746 -175.132-166.973c-91.26,0.973 -159.207,82.913 -159.406,212.809c-0.193,92.793 63.881,219.97 127.762,265.404
c-41.55-110.471 94.358-110.858 0.967-263.858c 63.875-18.064 115.324,33.584 99.406,117.271zM 248.137,34.097c 136.096,2.72 173.373,140.774 90.859,203.876c-14.558-63.101 -45.036-111.256 -96.491-110.857
c-45.624,0.574 -93,59.982 -75.328,139.775c-84.267-137.843 -9.519-234.541 80.96-232.794zM 492.871,69.652c0-55.717 -106.394-101.152 -236.868-101.152c-130.477,0 -236.874,45.437 -236.874,101.152c0,26.248 23.604,50.2 62.203,68.216
c 7.848-34.532 21.433-64.823 40.434-89.449c 31.090-40.297 75.265-62.777 124.406-63.302l 1.334,0 c 84.378,0 167.643,71.76 184.333,152.202c 37.901-17.939 61.032-41.693 61.032-67.667z"  />
<glyph unicode="&#xe0f8;" d="M 283.122,357.826l0-46.583 l 83.424,0 l-9.045-74.367l-74.379,0 l0-268.375 l-98.726,0 l0,268.375 l-51.443,0 l0,74.367 l 51.443,0 l0,56.302 c0,27.82 -2.097,41.020 9.725,62.578c 11.827,21.557 45.187,50.051 102.886,49.365
c 57.713-0.711 82.040-6.264 82.040-6.264l-12.501-79.257s-36.852,9.731 -54.942,6.264c-18.064-3.47 -28.481-14.598 -28.481-42.405z"  />
<glyph unicode="&#xe0f9;" d="M 460.46,386.944c0-32.762 47.731-418.444 -82.513-418.444c-92.443,0 -102.549,9.468 -108.413,14.334c-5.863,4.841 -13.849,27.122 -10.916,74.43c 3.192,51.748 78.671,42.666 78.671,42.666l-1.821-40.046
s-7.273-0.574 -21.845-0.574c-14.559,0 -23.379-36.59 9.569-38.985l 48.080,1.945c 21.233,3.031 18.363,45.461 15.171,78.272c-2.433,24.877 -48.343,23.267 -82.738,31.951c-34.371,8.708 -41.045,45.71 -47.121,45.71
c-6.063,0 1.211-65.522 -20.622-65.522c-21.845,0 -125.517,11.929 -142.471,28.882c-29.231,29.23 -50.489,185.912 -50.489,200.771c0,14.87 14.072,17.902 32.162,16.692l 64.624,0 c 13.012,0.024 21.333,7.696 21.333,23.878
c0,16.169 -0.399,26.286 -0.399,48.53c0,22.258 4.268,45.873 22.481,46.060c 18.189,0.2 66.095,6.538 89.15-4.392c 23.067-10.929 25.5-42.467 25.5-42.467l 114.063-7.286s 48.543-3.668 48.543-36.404zM 397.146,229.577
c 3.23,3.044 -7.474,34.382 -28.508,34.382c-21.035,0 -26.474-27.708 -23.642-31.139c 2.82-3.443 12.476,5.664 23.642,5.664c 11.165,0 25.264-11.94 28.508-8.907zM 131.99,370.352l-72.809,0 l 89.801,89.4
s-1.609-69.988 -1.609-76.451c0-6.475 -2.034-12.949 -15.383-12.949z"  />
<glyph unicode="&#xe0fa;" d="M 467.811,366.871c 9.257-13.624 17.179-28.246 23.565-43.415c 6.537-15.407 11.527-31.575 14.896-48.018c 3.454-16.807 5.214-34.122 5.214-51.438c0-17.303 -1.76-34.582 -5.214-51.425
c-3.369-16.443 -8.359-32.586 -14.896-48.019c-6.387-15.158 -14.309-29.767 -23.566-43.39c-9.118-13.537 -19.624-26.237 -31.163-37.815c-11.565-11.526 -24.29-22.018 -37.802-31.189
c-13.648-9.206 -28.256-17.128 -43.401-23.554c-15.433-6.513 -31.59-11.502 -47.994-14.87c-16.841-3.469 -34.158-5.24 -51.461-5.24c-17.316,0 -34.632,1.771 -51.449,5.24
c-16.43,3.368 -32.586,8.357 -48.006,14.87c-15.146,6.426 -29.768,14.348 -43.415,23.554c-13.511,9.17 -26.236,19.662 -37.776,31.189c-11.552,11.577 -22.057,24.277 -31.189,37.815c-9.207,13.623 -17.143,28.232 -23.555,43.39
c-6.538,15.433 -11.54,31.576 -14.921,48.019c-3.418,16.843 -5.165,34.122 -5.165,51.425c0,17.316 1.746,34.632 5.166,51.438c 3.381,16.442 8.383,32.61 14.921,48.018c 6.412,15.17 14.348,29.791 23.555,43.415
c 9.132,13.548 19.637,26.224 31.189,37.813c 11.54,11.528 24.266,21.994 37.776,31.151c 13.648,9.245 28.27,17.166 43.415,23.605c 15.42,6.525 31.575,11.527 48.006,14.87c 16.817,3.443 34.133,5.19 51.449,5.19
c 17.303,0 34.619-1.747 51.461-5.19c 16.405-3.344 32.56-8.346 47.994-14.87c 15.145-6.438 29.754-14.359 43.401-23.605c 13.512-9.157 26.237-19.623 37.802-31.151c 11.539-11.59 22.045-24.266 31.163-37.813z
M 255.988,442.173c-17.729,0 -34.933-2.146 -51.412-6.113c 3.268-4.392 44.251-58.76 81.564-127.274c 82.327,30.864 113.403,78.172 113.94,78.97c-38.413,33.872 -88.851,54.418 -144.093,54.418zM 203.69,435.835l 0.050,0 
c-0.25-0.025 -0.462-0.050 -0.711-0.175c 0.424,0.126 0.661,0.175 0.661,0.175zM 162.895,421.352c-60.844-28.731 -106.255-84.797 -120.414-152.364c 5.752-0.051 96.674-1.198 201.431,26.636
c-37.763,67.094 -78.109,121.848 -81.017,125.729zM 93.705,78.21c-0.025,0.050 -0.075,0.113 -0.075,0.113s 59.709,105.93 177.453,144.005c 2.844,0.948 5.739,1.797 8.608,2.62
c-5.477,12.399 -11.453,24.826 -17.703,37.077c-112.342-33.634 -220.145-31.214 -224.012-31.064c-0.063-2.345 -0.175-4.615 -0.175-6.961c0-56.052 21.146-107.152 55.903-145.79zM 255.988,5.827
c 30.215,0 58.996,6.151 85.182,17.291c-3.23,19.063 -15.906,85.882 -46.608,165.676c-0.485-0.161 -0.972-0.3 -1.446-0.474c-128.762-44.889 -170.791-135.36 -171.19-136.209c-1.609,1.248 -3.332,2.395 -4.916,3.742
c 2.896-2.346 4.878-3.843 4.878-3.843l 0.038,0.101c 37.003-28.905 83.462-46.284 134.063-46.284zM 377.912,43.054c 48.991,33.060 83.785,85.558 93.491,146.365c-4.491,1.447 -65.534,20.773 -135.959,9.481
c 28.619-78.647 40.247-142.697 42.468-155.847zM 322.146,233.332c 74.952,9.432 148.796-6.438 151.952-7.085c-0.499,51.723 -19.001,99.193 -49.614,136.356c-0.412-0.585 -35.406-51.148 -121.551-86.33
c 5.064-10.405 9.969-20.995 14.496-31.639c 1.61-3.817 3.183-7.561 4.717-11.303zM 203.69,435.835c0,0 -0.237-0.050 -0.661-0.175c 0.25,0.125 0.461,0.149 0.711,0.175l-0.050,0 zM 117.010,55.854
c 1.584-1.348 3.307-2.494 4.916-3.742l-0.038-0.101c0,0.001 -1.983,1.498 -4.878,3.843z"  />
<glyph unicode="&#xe0fb;" d="M 152.526,367.916c0,6.491 5.739,6.327 5.739,6.328l 44.955,0 s-0.022-25.331 -0.022-31.27c0-6.479 -5.74-6.339 -5.74-6.339l-44.932,0 l0,31.281 zM 152.538,303.006c0,6.467 5.752,6.315 5.752,6.315l 44.92,0 
s-0.024-167.744 -0.024-169.070c0-6.456 -5.728-6.304 -5.728-6.304l-44.92,0 l0,169.059 zM 86.548,367.916c0,6.491 5.729,6.327 5.729,6.327l 44.978,0 s-0.035-228.030 -0.035-233.968
c0-6.491 -5.739-6.327 -5.739-6.327l-130.98,0 l0,169.047 c0,6.478 5.751,6.326 5.751,6.326l 80.297,0 l0,58.595 zM 86.572,177.929l0,93.82 l-30.659,0 s-5.751,0.141 -5.751-6.338l0-93.832 l 30.658,0 s 5.752-0.141 5.752,6.35z
M 220.628,302.995c0,6.478 5.729,6.326 5.728,6.327l 131.004-0.105s-0.022-223.182 -0.022-229.121c0-6.479 -5.74-6.338 -5.74-6.338l-130.969,0 l0,31.28 c0,6.479 5.729,6.339 5.729,6.339l 80.298,0 l0,22.571 l-86.026,0 
l0,169.047 zM 270.278,265.411l0-93.832 l 30.671,0 s 5.751-0.141 5.751,6.35l0,93.82 l-30.671,0 s-5.751,0.141 -5.751-6.338zM 380.496,309.321l 131.002-0.104s-0.023-223.182 -0.023-229.121c0-6.479 -5.739-6.338 -5.739-6.338
l-130.97,0 l0,31.28 c0,6.479 5.729,6.339 5.729,6.339l 80.297,0 l0,22.571 l-86.025,0 l0,169.047 c0,6.478 5.729,6.326 5.729,6.326zM 460.84,177.929l0,93.82 l-30.67,0 s-5.764,0.141 -5.764-6.338l0-93.832 l 30.682,0 s 5.752-0.141 5.752,6.35z
"  />
<glyph unicode="&#xe0fc;" d="M 96.176,341.756c 18.498,6.008 37.748,10.521 57.502,13.995l 20.597-39.292c 105.157,22.021 279.041,2.286 337.226-86.481l-240.015-66.745l-59.037,109.48c 11.608,1.703 24.664,3.296 36.688,3.989
c 11.234,0.483 22.091,0.188 32.444-0.792l 31.829-53.573l 80.858,19.686c-51.544,52.723 -134.671,50.91 -201.961,40.014l 64.401-122.922l-240.451-66.866c-8.848,16.479 -14.163,36.174 -15.459,55.76
c-4.424,66.925 40.787,122.935 114.53,153.208l-19.152,40.539l0,0 zM 169.158,187.222l-35.996,76.219c-34.175-18.756 -53.178-49.438 -44.895-95.913z"  />
<glyph unicode="&#xe101;" d="M 509.023,267.29l 1.534-7.172l-1.022-130.434c-0.512-88.614 -72.559-161.185 -161.334-161.185l-185.419,0 c-88.782,0 -161.341,72.57 -161.341,161.184l0,188.308 c0,88.776 72.559,161.509 161.341,161.508l 112.859,0 
c 41.655-4.94 102.263-40.62 124.633-88.090c 6.138-13.312 9.382-15.369 14.495-54.806c 2.745-20.31 4.117-35.343 13.161-43.714c 12.8-11.602 60.27-3.742 69.652-11.091l 7.173-5.626zM 164.828,347.533
c-17.067,0 -30.902-13.835 -30.901-30.74c0-16.892 13.834-30.89 30.901-30.89l 89.463,0 c 17.072,0 30.908,13.998 30.908,30.89c0,16.905 -13.836,30.74 -30.908,30.74l-89.463,0 zM 346.654,101.34c 16.917,0 30.74,13.998 30.74,30.729
c0,16.904 -13.822,30.727 -30.739,30.727l-181.827,0 c-17.067,0 -30.901-13.824 -30.901-30.727c0-16.73 13.834-30.729 30.901-30.729l 181.826,0 z"  />
<glyph unicode="&#xe103;" d="M 206.729,241.13c 63.74,0 59.352-78.689 59.352-78.689c0-96.718 -100.671-93.537 -100.671-93.537l-92.248,0 l-2.704,0 l-69.957,0 l0,316.909 l 69.957,0 l 2.704,0 l 92.248,0 c 50.115,0 89.678-27.677 89.678-84.388c0-56.707 -48.358-60.296 -48.358-60.296z
M 153.539,329.487l-80.378,0 l0-70.723 l 86.528,0 c 14.952,0 28.136,4.781 28.136,37.749c0,32.974 -22.416,32.974 -22.416,32.974l-11.87,0 zM 160.749,125.23c 13.116,0.279 38.070,4.1 38.070,41.167c0,43.961 -33.41,43.523 -33.41,43.523l-92.248,0 
l0-84.689 l 87.588,0 zM 400.342,305.183c 128.268,0 110.297-137.567 110.297-137.567l-164.213,0 c0-58.873 55.777-55.135 55.777-55.135c 52.67,0 50.81,34.067 50.81,34.067l 55.768,0 c0-90.466 -108.438-84.27 -108.438-84.27
c-130.127,0 -121.765,121.141 -121.765,121.141s-0.108,121.765 121.765,121.765zM 345.813,209.92l 104.104,0 s 0.613,48.845 -48.336,48.845c-48.959,0 -55.768-48.845 -55.768-48.845zM 462.908,328.119l-130.749,0 l0,39.024 l 130.749,0 l0-39.024 z"  />
<glyph unicode="&#xe109;" d="M 34.353,479.5l 45.96,0 l 29.604-91.096l 2.863,0 l 28.232,91.096l 46.353,0 l-53.107-133.338l0-94.589 l-45.618,0 l0,90.347 zM 192.193,381.343c0,13.374 5.495,24.003 16.492,31.939c 10.984,7.934 25.749,11.9 44.301,11.9
c 16.893,0 30.727-4.191 41.506-12.55c 10.805-8.357 16.192-19.112 16.192-32.287l0-89.2 c0-14.771 -5.301-26.372 -15.867-34.781c-10.579-8.408 -25.151-12.625 -43.685-12.625c-17.858,0 -32.143,4.342 -42.866,13.023
c-10.709,8.684 -16.073,20.36 -16.073,35.058l0,89.523 zM 234.205,288.576c0-4.767 1.439-8.409 4.354-11.029c 2.907-2.595 7.056-3.867 12.451-3.867c 5.532,0 9.931,1.297 13.181,3.942
c 3.256,2.669 4.891,6.313 4.891,10.954l0,94.064 c0,3.769 -1.672,6.813 -4.99,9.133c-3.317,2.32 -7.679,3.493 -13.081,3.493c-4.972,0 -9.026-1.173 -12.133-3.493c-3.119-2.32 -4.672-5.364 -4.672-9.133
l0-94.064 zM 459.992,422.412l0-172.711 l-40.883,0 l0,19.063 c-7.548-7.037 -15.382-12.375 -23.541-16.068c-8.146-3.644 -16.068-5.489 -23.73-5.489c-9.455,0 -16.592,2.57 -21.383,7.71c-4.791,5.141 -7.187,12.85 -7.187,23.13
l0,144.366 l 40.895,0 l0-132.39 c0-4.117 0.861-7.062 2.57-8.907c 1.723-1.822 4.491-2.745 8.321-2.745c 3.019,0 6.824,1.223 11.4,3.643c 4.604,2.42 8.82,5.515 12.65,9.282l0,131.117 l 40.885,0 zM 421.68,116.738
c 2.009-2.245 3.006-5.963 3.006-11.153l0-10.754 l-25.473,0 l0,10.754 c0,5.19 0.998,8.908 2.994,11.153c 1.996,2.221 5.289,3.368 9.879,3.368c 4.391,0 7.586-1.147 9.594-3.368zM 300.855,35.773
c-2.209,0.874 -4.491,2.32 -6.838,4.366l0,75.402 c 1.959,1.696 3.942,2.969 5.95,3.792c 2.010,0.799 4.043,1.198 6.103,1.198c 3.893,0 6.897-1.073 8.957-3.244c 2.045-2.171 3.067-5.34 3.067-9.531
l0-62.178 c0-3.942 -0.823-6.812 -2.494-8.533c-1.672-1.746 -4.241-2.595 -7.784-2.595c-2.445,0 -4.767,0.424 -6.961,1.322zM 490.496,167.413c 2.27-23.678 3.254-47.381 3.154-71.085
c 0.1-23.703 -0.885-47.406 -3.154-71.11c0-29.916 -30.754-54.191 -68.654-54.191c-54.067-1.798 -109.396-2.597 -165.842-2.521c-56.427-0.075 -111.756,0.724 -165.843,2.521
c-37.881,0 -68.633,24.275 -68.633,54.191c-2.277,23.704 -3.263,47.407 -3.176,71.11c-0.088,23.704 0.898,47.407 3.176,71.085c0,29.942 30.752,54.219 68.633,54.219c 54.087,1.823 109.416,2.621 165.843,2.521
c 56.446,0.099 111.774-0.699 165.842-2.521c 37.9,0 68.654-24.278 68.654-54.219zM 121.251,16.535l0,141.821 l 33.602,0 l0,1.771 l0,22.605 l0,1.771 l-99.672,0 l0-1.771 l0-22.605 l0-1.771 l 33.597,0 l0-141.821 l0-1.797 l 32.473,0 l0,1.797 zM 236.768,138.67
l0,1.772 l-28.831,0 l0-1.772 l0-92.293 c-2.714-2.695 -5.683-4.915 -8.913-6.662c-3.244-1.722 -5.921-2.595 -8.048-2.595c-2.7,0 -4.658,0.648 -5.876,1.971c-1.202,1.298 -1.802,3.443 -1.802,6.363l0,93.216 l0,1.772 
l-28.844,0 l0-1.772 l0-101.773 l0-1.798 c0-7.386 1.69-12.925 5.078-16.616c 3.381-3.668 8.402-5.516 15.065-5.516c 5.414,0 10.991,1.323 16.748,3.942c 5.744,2.645 11.266,6.463 16.592,11.526l0-11.9 l0-1.797 l 28.831,0 
l0,1.797 l0,122.135 zM 347.775,109.153l0,1.795 c0,10.131 -2.408,17.841 -7.211,23.13c-4.803,5.29 -11.789,7.935 -20.896,7.935c-4.464,0 -8.894-0.998 -13.273-2.969c-4.366-1.946 -8.482-4.815 -12.376-8.608l0,52.298 l0,1.771 
l-29.105,0 l0-1.771 l0-166.197 l0-1.797 l 29.105,0 l0,1.797 l0,7.735 c 3.793-3.769 7.897-6.563 12.325-8.385c 4.418-1.797 9.432-2.694 15.070-2.694c 8.533,0 15.070,2.345 19.588,6.985c 4.515,4.691 6.773,11.428 6.773,20.235
l0,1.797 l0,66.943 zM 454.365,105.36l 0.001,0 l0,1.771 c0,11.752 -3.555,20.784 -10.615,27.048c-7.088,6.263 -17.217,9.406 -30.416,9.406c-12.899,0 -23.442-3.393 -31.588-10.155c-8.135-6.787 -12.213-15.545 -12.213-26.299
l0-1.771 l0-53.845 l0-1.796 c0-11.902 3.717-21.284 11.127-28.096c 7.424-6.811 17.578-10.229 30.49-10.229c 14.358,0 25.149,3.193 32.375,9.632c 7.234,6.437 10.84,15.993 10.84,28.693l0,1.796 l0,7.511 l0,1.796 l-29.681,0 l0-1.796 
l0-6.812 c0-7.286 -0.947-12.002 -2.844-14.123c-1.908-2.146 -5.264-3.219 -10.043-3.219c-4.59,0 -7.834,1.271 -9.742,3.793c-1.896,2.52 -2.844,7.036 -2.844,13.549l0,21.581 l 55.152,0 l0,1.797 l0,29.768 z"  />
<glyph unicode="&#xe106;" d="M 248.644,356.524c-5.449,29.71 8.599,60.284 25.517,80.89c 18.645,22.735 50.642,40.17 77.986,42.086c 4.618-31.149 -8.094-61.498 -24.826-82.965c-17.95-23.063 -48.813-40.946 -78.677-40.011zM 409.034,248.869
c-19.575-54.44 5.4-121.356 66.128-144.257c-11.943-26.605 -17.751-38.491 -33.11-62.023c-21.569-32.792 -51.904-73.674 -89.476-73.991c-33.413-0.318 -42.010,21.78 -87.372,21.523
c-45.295-0.224 -54.787-21.943 -88.246-21.616c-37.56,0.322 -66.311,37.263 -87.881,70.060c-44.363,67.587 -59.235,143.704 -49.279,202.144c 3.588,20.832 10.167,39.535 19.879,54.59c 26.414,40.73 68.064,64.577 107.19,64.577
c 39.9,0 64.906-21.947 97.866-21.947c 31.995,0 51.473,21.947 97.538,21.947c 34.816,0 71.712-19.038 97.989-51.83c-26.004-14.33 -42.766-35.569 -51.227-59.175z"  />
<glyph unicode="&#xe107;" d="M 293.596,246.030l0,14.613 c-48.861,0 -100.469-10.458 -100.469-67.982c0-29.249 15.164-48.98 41.069-48.98c 18.958,0 36.024,11.677 46.749,30.698c 13.277,23.386 12.65,45.328 12.65,71.65zM 361.701,81.345
c-4.48-4.005 -10.935-4.283 -15.971-1.566c-22.446,18.64 -26.463,27.263 -38.719,45.009c-37.069-37.768 -63.335-49.094 -111.355-49.094c-56.871,0 -101.090,35.085 -101.090,105.269c0,54.833 29.688,92.112 72.022,110.395
c 36.648,16.086 87.836,19.004 127.006,23.396l0,8.774 c0,16.073 1.253,35.091 -8.218,48.978c-8.217,12.43 -24.013,17.542 -37.905,17.542c-25.76,0 -48.67-13.196 -54.288-40.552c-1.178-6.094 -5.611-12.11 -11.744-12.425
l-65.459,7.092c-5.524,1.241 -11.677,5.682 -10.074,14.119c 15.036,79.421 86.762,103.418 151.037,103.418c 32.856,0 75.822-8.774 101.729-33.63c 32.857-30.71 29.7-71.65 29.7-116.248l0-105.224 
c0-31.649 13.138-45.543 25.487-62.614c 4.316-6.128 5.292-13.44 -0.209-17.92c-13.801-11.571 -38.324-32.869 -51.812-44.87zM 454.261,62.623c 9.459,4.016 17.386-6.221 8.137-13.068
c-55.954-41.282 -137.058-63.254 -206.903-63.254c-97.887,0 -186.030,36.19 -252.732,96.425c-5.234,4.735 -0.568,11.2 5.733,7.532c 71.958-41.887 160.949-67.096 252.882-67.096c 62,0 130.163,12.859 192.884,39.461zM 470.962,12.345
c 6.755,16.876 21.866,54.619 14.717,63.787c-7.161,9.169 -47.307,4.354 -65.343,2.184c-5.456-0.65 -6.314,4.108 -1.394,7.59c 32.033,22.481 84.506,15.993 90.599,8.461c 6.152-7.602 -1.601-60.201 -31.615-85.317
c-4.619-3.876 -9.007-1.81 -6.964,3.296z"  />
<glyph unicode="&#x20;" horiz-adv-x="256" />
</font>
</defs>
</svg>
